Yo vi al diablo (2010) Full 1080p Latino | CinemaniaHD - Descargar Peliculas 1080p Mega Google Drive

Yo vi al diablo (2010) Full 1080p Latino

959 vistas
1 estrella2 estrellas3 estrellas4 estrellas5 estrellas (4 votos, promedio: 4,00 de 5)
Cargando…

Información de Yo vi al diablo (2010) Full 1080p Latino

Datos de la película

  • Calidad: Full 1080p
  • Audio: Se especifica abajo de la Sinopsis
  • Subtitulos: Español Latino PGS - Ingles PGS
  • Resolución: 1920x10800p
  • Formato: MKV
  • Codec: H.264
  • Encoder: Dracarys
  • Mediainfo: Clic para Mostrar Datos Ver
  • Format                                   : Matroska
    Format version                           : Version 4 / Version 2
    File size                                : 11.6 GiB
    Duration                                 : 2 h 22 min
    Overall bit rate                         : 11.6 Mb/s
    Movie name                               : CinemaniaHDD.net
    Encoded date                             : UTC 2018-07-25 03:44:55 / UTC 2018-07-20T00:11:55Z
    Writing application                      : mkvmerge v15.0.0 ('Duel with the Devil') 64-bit
    Writing library                          : libebml v1.3.5 + libmatroska v1.4.5 / Lavf57.7.2

    Video
    ID                                       : 1
    Format                                   : AVC
    Format/Info                              : Advanced Video Codec
    Format profile                           : High@L4.1
    Format settings                          : CABAC / 4 Ref Frames
    Format settings, CABAC                   : Yes
    Format settings, RefFrames               : 4 frames
    Codec ID                                 : V_MPEG4/ISO/AVC
    Duration                                 : 2 h 22 min
    Bit rate                                 : 9 717 kb/s
    Width                                    : 1 920 pixels
    Height                                   : 1 080 pixels
    Display aspect ratio                     : 16:9
    Frame rate mode                          : Constant
    Frame rate                               : 23.976 (24000/1001) FPS
    Color space                              : YUV
    Chroma subsampling                       : 4:2:0
    Bit depth                                : 8 bits
    Scan type                                : Progressive
    Bits/(Pixel*Frame)                       : 0.195
    Stream size                              : 9.65 GiB (83%)
    Title                                    : Yo vi al diablo (2010) Full 1080p Latino
    Writing library                          : x264 core 148 r2708 86b7198
    Encoding settings                        : cabac=1 / ref=4 / deblock=1:0:0 / analyse=0x3:0x133 / me=esa / subme=10 / psy=1 / psy_rd=1.00:0.00 / mixed_ref=1 / me_range=24 / chroma_me=1 / trellis=2 / 8x8dct=1 / cqm=0 / deadzone=21,11 / fast_pskip=1 / chroma_qp_offset=-2 / threads=34 / lookahead_threads=5 / sliced_threads=0 / nr=0 / decimate=1 / interlaced=0 / bluray_compat=0 / constrained_intra=0 / bframes=8 / b_pyramid=2 / b_adapt=2 / b_bias=0 / direct=3 / weightb=1 / open_gop=0 / weightp=2 / keyint=240 / keyint_min=24 / scenecut=40 / intra_refresh=0 / rc_lookahead=60 / rc=crf / mbtree=1 / crf=20.0 / qcomp=0.60 / qpmin=0 / qpmax=69 / qpstep=4 / vbv_maxrate=62500 / vbv_bufsize=78125 / crf_max=0.0 / nal_hrd=none / filler=0 / ip_ratio=1.40 / aq=1:1.00
    Language                                 : Korean
    Default                                  : Yes
    Forced                                   : No
    Color range                              : Limited
    Color primaries                          : BT.709
    Transfer characteristics                 : BT.709
    Matrix coefficients                      : BT.709
    Statistics Tags Issue                    : mkvmerge v15.0.0 ('Duel with the Devil') 64-bit 2018-07-25 03:44:55 / mkvmerge v15.0.0 ('Duel with the Devil') 64-bit 2018-07-25 03:44:55 / UTC 2018-07-20T00:11:55Z
    FromStats_BitRate                        : 9938167
    FromStats_Duration                       : 02:22:11.273000000
    FromStats_FrameCount                     : 204546
    FromStats_StreamSize                     : 10598152773

    Audio #1
    ID                                       : 2
    Format                                   : AC-3
    Format/Info                              : Audio Coding 3
    Format settings, Endianness              : Big
    Codec ID                                 : A_AC3
    Duration                                 : 2 h 22 min
    Bit rate mode                            : Constant
    Bit rate                                 : 192 kb/s
    Channel(s)                               : 2 channels
    Channel positions                        : Front: L R
    Sampling rate                            : 48.0 kHz
    Frame rate                               : 31.250 FPS (1536 SPF)
    Bit depth                                : 16 bits
    Compression mode                         : Lossy
    Stream size                              : 195 MiB (2%)
    Language                                 : Spanish
    Service kind                             : Complete Main
    Default                                  : Yes
    Forced                                   : No
    Statistics Tags Issue                    : mkvmerge v15.0.0 ('Duel with the Devil') 64-bit 2018-07-25 03:44:55 / mkvmerge v15.0.0 ('Duel with the Devil') 64-bit 2018-07-25 03:44:55 / UTC 2018-07-20T00:11:55Z
    FromStats_BitRate                        : 192000
    FromStats_Duration                       : 02:22:11.296000000
    FromStats_FrameCount                     : 266603
    FromStats_StreamSize                     : 204751104

    Audio #2
    ID                                       : 3
    Format                                   : DTS
    Format/Info                              : Digital Theater Systems
    Mode                                     : 16
    Format settings, Endianness              : Big
    Codec ID                                 : A_DTS
    Duration                                 : 2 h 22 min
    Bit rate mode                            : Constant
    Bit rate                                 : 1 509 kb/s
    Channel(s)                               : 6 channels
    Channel positions                        : Front: L C R, Side: L R, LFE
    Sampling rate                            : 48.0 kHz
    Frame rate                               : 93.750 FPS (512 SPF)
    Bit depth                                : 24 bits
    Compression mode                         : Lossy
    Stream size                              : 1.50 GiB (13%)
    Language                                 : Korean
    Default                                  : No
    Forced                                   : No
    Statistics Tags Issue                    : mkvmerge v15.0.0 ('Duel with the Devil') 64-bit 2018-07-25 03:44:55 / mkvmerge v15.0.0 ('Duel with the Devil') 64-bit 2018-07-25 03:44:55 / UTC 2018-07-20T00:11:55Z
    FromStats_BitRate                        : 1509000
    FromStats_Duration                       : 02:22:11.296000000
    FromStats_FrameCount                     : 799809
    FromStats_StreamSize                     : 1609215708

    Text #1
    ID                                       : 4
    Format                                   : PGS
    Muxing mode                              : zlib
    Codec ID                                 : S_HDMV/PGS
    Codec ID/Info                            : Picture based subtitle format used on BDs/HD-DVDs
    Language                                 : English
    Default                                  : No
    Forced                                   : No
    Statistics Tags Issue                    : mkvmerge v15.0.0 ('Duel with the Devil') 64-bit 2018-07-25 03:44:55 / mkvmerge v15.0.0 ('Duel with the Devil') 64-bit 2018-07-25 03:44:55 / UTC 2018-07-20T00:11:55Z
    FromStats_BitRate                        : 13613
    FromStats_Duration                       : 02:14:17.216000000
    FromStats_FrameCount                     : 1372
    FromStats_StreamSize                     : 13710996

    Text #2
    ID                                       : 5
    Format                                   : PGS
    Muxing mode                              : zlib
    Codec ID                                 : S_HDMV/PGS
    Codec ID/Info                            : Picture based subtitle format used on BDs/HD-DVDs
    Language                                 : Spanish
    Default                                  : No
    Forced                                   : No
    Statistics Tags Issue                    : mkvmerge v15.0.0 ('Duel with the Devil') 64-bit 2018-07-25 03:44:55 / mkvmerge v15.0.0 ('Duel with the Devil') 64-bit 2018-07-25 03:44:55 / UTC 2018-07-20T00:11:55Z
    FromStats_BitRate                        : 14252
    FromStats_Duration                       : 02:14:17.216000000
    FromStats_FrameCount                     : 1376
    FromStats_StreamSize                     : 14354732

    Menu
    00:00:00.000                             : :Chapter 1
    00:09:44.167                             : :Chapter 2
    00:14:13.394                             : :Chapter 3
    00:19:52.525                             : :Chapter 4
    00:23:27.406                             : :Chapter 5
    00:36:21.763                             : :Chapter 6
    00:45:24.931                             : :Chapter 7
    00:56:03.110                             : :Chapter 8
    01:02:09.559                             : :Chapter 9
    01:13:04.547                             : :Chapter 10
    01:17:05.788                             : :Chapter 11
    01:27:45.260                             : :Chapter 12
    01:40:43.287                             : :Chapter 13
    01:49:49.291                             : :Chapter 14
    02:06:36.005                             : :Chapter 15
    02:19:35.075                             : :Chapter 16

  • Peso: 11.6 GiB

Sinopsis

Kyung-chul es un psicópata peligroso que mata por placer y que ha cometido varios asesinatos con unos métodos diabólicos difíciles de imaginar. Sus víctimas son chicas jóvenes. La policía lleva tiempo intentando capturarlo. Un día, aparece asesinada la hija de un jefe de policía retirado. El novio de la chica, un agente secreto, jura vengarse.

 

 

Latino AC3 2.0  –  Coreano DTS 5.1

Ficha técnica

Video trailer de la película

Enlaces de descarga

Rip de Bluray

Descargar Yo vi al diablo (2010) Full 1080p Latino




Aportes de DPeliculasHDmega la pass es:dpeliculashdmega.org Aportes de CinemaniaHD la pass es:cinemaniahdd.com

Películas relacionadas

  • La jungla (2017) 1080p Latino

    2017
    La jungla (2017) 1080p Latino

    0.0 1h 55m 2017

    Cuenta la historia real de Yossi Ghinsberg, un joven aventurero que vivió para escribir un bestseller...

    Director: Greg McLean

    Género: 1080p Portada Negra

    Actores: Yasmin Kassim

  • V/H/S: (2014) Full 1080p Subtitulado

    2014
    V/H/S: (2014) Full 1080p Subtitulado

    4.2 1 h 21 min 2014

    Un camión está causando el caos en la calle, atropellando a todo aquel que se cruza en su camino. Mientras...

    Director: Todd Lincoln

    Género: FULL 1080p Plateadas

    Actores: Nick Blanco

  • V/H/S Las crónicas del miedo 2 (2013) Full 1080p Latino

    2013
    V/H/S Las crónicas del miedo 2 (2013) Full 1080p Latino

    4.3 1h 35m 2013

    Secuela de V/H/S (2012). Buscando a un estudiante desaparecido, dos investigadores privados irrumpen...

    Director: Timo Tjahjanto

    Género: FULL 1080p Plateadas

    Actores: Samantha Gracie

  • V/H/S Las crónicas del miedo (2012) Full 1080p Latino

    2012
    V/H/S Las crónicas del miedo (2012) Full 1080p Latino

    4.3 1 h 56 min 2012

    Un grupo de matones son contratados por un misterioso sujeto para que vayan a una casa abandonada y encuentren...

    Director: Tyler Gillett

    Género: FULL 1080p Plateadas

    Actores: Tyler Gillett

  • The Hitman’s Bodyguard (2017) Full 1080p Latino

    2017
    The Hitman’s Bodyguard (2017) Full 1080p Latino

    4.3 1 h 58 min 2017

    El prestigioso guardaespaldas Michael Bryce recibe un nuevo cliente: un asesino a sueldo, Darius Kincaid,...

    Director: Stefania Velichkova

    Género: Acción

    Actores: Yuri Kolokolnikov

Comentarios 0