X-Men The Last Stand (2006) Full 1080p Latino

716 vistas
1 estrella2 estrellas3 estrellas4 estrellas5 estrellas (1 votos, promedio: 1,00 de 5)
Cargando…

Información de X-Men The Last Stand (2006) Full 1080p Latino

Datos de la película

  • Calidad: Full 1080p
  • Audio: Español Latino AC3 5.1 BLURAY - Ingles DTS 5.1 BLURAY
  • Subtitulos: Español Latino PGS - Ingles PGS
  • Resolución: 1920X1080p
  • Formato: MKV
  • Codec: H.264
  • Encoder: Dracarys
  • Mediainfo: Clic para Mostrar Datos Ver
  • Format                                   : Matroska
    Format version                           : Version 4 / Version 2
    File size                                : 8.06 GiB
    Duration                                 : 1 h 44 min
    Overall bit rate                         : 11.1 Mb/s
    Movie name                               : CinemaniaHDD.com
    Encoded date                             : UTC 2018-03-21 01:57:26 / UTC 2018-03-17T12:59:10Z
    Writing application                      : mkvmerge v15.0.0 ('Duel with the Devil') 64-bit
    Writing library                          : libebml v1.3.5 + libmatroska v1.4.5 / Lavf57.7.2

    Video
    ID                                       : 1
    Format                                   : AVC
    Format/Info                              : Advanced Video Codec
    Format profile                           : High@L4.1
    Format settings                          : CABAC / 4 Ref Frames
    Format settings, CABAC                   : Yes
    Format settings, RefFrames               : 4 frames
    Codec ID                                 : V_MPEG4/ISO/AVC
    Duration                                 : 1 h 44 min
    Bit rate                                 : 8 910 kb/s
    Width                                    : 1 920 pixels
    Height                                   : 1 080 pixels
    Display aspect ratio                     : 16:9
    Frame rate mode                          : Constant
    Frame rate                               : 23.976 (24000/1001) FPS
    Color space                              : YUV
    Chroma subsampling                       : 4:2:0
    Bit depth                                : 8 bits
    Scan type                                : Progressive
    Bits/(Pixel*Frame)                       : 0.179
    Stream size                              : 6.48 GiB (80%)
    Title                                    : X-Men The Last Stand (2006) Full 1080p Latino
    Writing library                          : x264 core 148 r2708 86b7198
    Encoding settings                        : cabac=1 / ref=4 / deblock=1:0:0 / analyse=0x3:0x133 / me=esa / subme=9 / psy=1 / psy_rd=1.00:0.00 / mixed_ref=1 / me_range=16 / chroma_me=1 / trellis=2 / 8x8dct=1 / cqm=0 / deadzone=21,11 / fast_pskip=1 / chroma_qp_offset=-2 / threads=34 / lookahead_threads=2 / sliced_threads=0 / nr=0 / decimate=1 / interlaced=0 / bluray_compat=0 / constrained_intra=0 / bframes=3 / b_pyramid=2 / b_adapt=2 / b_bias=0 / direct=3 / weightb=1 / open_gop=0 / weightp=2 / keyint=240 / keyint_min=24 / scenecut=40 / intra_refresh=0 / rc_lookahead=60 / rc=crf / mbtree=1 / crf=21.0 / qcomp=0.60 / qpmin=0 / qpmax=69 / qpstep=4 / vbv_maxrate=62500 / vbv_bufsize=78125 / crf_max=0.0 / nal_hrd=none / filler=0 / ip_ratio=1.40 / aq=1:1.00
    Language                                 : English
    Default                                  : Yes
    Forced                                   : No
    Color range                              : Limited
    Color primaries                          : BT.709
    Transfer characteristics                 : BT.709
    Matrix coefficients                      : BT.709
    Statistics Tags Issue                    : mkvmerge v15.0.0 ('Duel with the Devil') 64-bit 2018-03-21 01:57:26 / mkvmerge v15.0.0 ('Duel with the Devil') 64-bit 2018-03-21 01:57:26 / UTC 2018-03-17T12:59:10Z
    FromStats_BitRate                        : 9104520
    FromStats_Duration                       : 01:44:05.239000000
    FromStats_FrameCount                     : 149736
    FromStats_StreamSize                     : 7107488551

    Audio #1
    ID                                       : 2
    Format                                   : AC-3
    Format/Info                              : Audio Coding 3
    Format settings, Endianness              : Big
    Codec ID                                 : A_AC3
    Duration                                 : 1 h 44 min
    Bit rate mode                            : Constant
    Bit rate                                 : 448 kb/s
    Channel(s)                               : 6 channels
    Channel positions                        : Front: L C R, Side: L R, LFE
    Sampling rate                            : 48.0 kHz
    Frame rate                               : 31.250 FPS (1536 SPF)
    Bit depth                                : 16 bits
    Compression mode                         : Lossy
    Delay relative to video                  : 2 s 0 ms
    Stream size                              : 334 MiB (4%)
    Language                                 : Spanish
    Service kind                             : Complete Main
    Default                                  : Yes
    Forced                                   : No
    Statistics Tags Issue                    : mkvmerge v15.0.0 ('Duel with the Devil') 64-bit 2018-03-21 01:57:26 / mkvmerge v15.0.0 ('Duel with the Devil') 64-bit 2018-03-21 01:57:26 / UTC 2018-03-17T12:59:10Z
    FromStats_BitRate                        : 448000
    FromStats_Duration                       : 01:44:05.248000000
    FromStats_FrameCount                     : 195164
    FromStats_StreamSize                     : 349733888

    Audio #2
    ID                                       : 3
    Format                                   : DTS
    Format/Info                              : Digital Theater Systems
    Format profile                           : ES Discrete / Core
    Mode                                     : 16
    Format settings, Endianness              : Big
    Codec ID                                 : A_DTS
    Duration                                 : 1 h 44 min
    Bit rate mode                            : Constant
    Bit rate                                 : 1 509 kb/s
    Channel(s)                               : 7 channels / 6 channels
    Channel positions                        : Front: L C R, Side: L R, Back: C, LFE / Front: L C R, Side: L R, LFE
    Sampling rate                            : 48.0 kHz
    Frame rate                               : 93.750 FPS (512 SPF)
    Bit depth                                : 24 bits
    Compression mode                         : Lossy
    Stream size                              : 1.10 GiB (14%)
    Language                                 : English
    Default                                  : No
    Forced                                   : No
    Statistics Tags Issue                    : mkvmerge v15.0.0 ('Duel with the Devil') 64-bit 2018-03-21 01:57:26 / mkvmerge v15.0.0 ('Duel with the Devil') 64-bit 2018-03-21 01:57:26 / UTC 2018-03-17T12:59:10Z
    FromStats_BitRate                        : 1508999
    FromStats_Duration                       : 01:44:05.238000000
    FromStats_FrameCount                     : 585491
    FromStats_StreamSize                     : 1178007892

    Text #1
    ID                                       : 4
    Format                                   : UTF-8
    Codec ID                                 : S_TEXT/UTF8
    Codec ID/Info                            : UTF-8 Plain Text
    Title                                    : SRT-Forzados
    Language                                 : Spanish
    Default                                  : Yes
    Forced                                   : Yes
    Statistics Tags Issue                    : mkvmerge v15.0.0 ('Duel with the Devil') 64-bit 2018-03-21 01:57:26 / mkvmerge v15.0.0 ('Duel with the Devil') 64-bit 2018-03-21 01:57:26 / UTC 2018-03-17T12:59:10Z
    FromStats_BitRate                        : 0
    FromStats_Duration                       : 01:34:04.772000000
    FromStats_FrameCount                     : 16
    FromStats_StreamSize                     : 647

    Text #2
    ID                                       : 5
    Format                                   : UTF-8
    Codec ID                                 : S_TEXT/UTF8
    Codec ID/Info                            : UTF-8 Plain Text
    Title                                    : SRT-Completos
    Language                                 : Spanish
    Default                                  : No
    Forced                                   : No
    Statistics Tags Issue                    : mkvmerge v15.0.0 ('Duel with the Devil') 64-bit 2018-03-21 01:57:26 / mkvmerge v15.0.0 ('Duel with the Devil') 64-bit 2018-03-21 01:57:26 / UTC 2018-03-17T12:59:10Z
    FromStats_BitRate                        : 38
    FromStats_Duration                       : 01:42:57.338000000
    FromStats_FrameCount                     : 794
    FromStats_StreamSize                     : 29670

    Text #3
    ID                                       : 6
    Format                                   : PGS
    Muxing mode                              : zlib
    Codec ID                                 : S_HDMV/PGS
    Codec ID/Info                            : Picture based subtitle format used on BDs/HD-DVDs
    Language                                 : English
    Default                                  : No
    Forced                                   : No
    Statistics Tags Issue                    : mkvmerge v15.0.0 ('Duel with the Devil') 64-bit 2018-03-21 01:57:26 / mkvmerge v15.0.0 ('Duel with the Devil') 64-bit 2018-03-21 01:57:26 / UTC 2018-03-17T12:59:10Z
    FromStats_BitRate                        : 29044
    FromStats_Duration                       : 01:42:52.750000000
    FromStats_FrameCount                     : 1775
    FromStats_StreamSize                     : 22410574

    Text #4
    ID                                       : 7
    Format                                   : PGS
    Muxing mode                              : zlib
    Codec ID                                 : S_HDMV/PGS
    Codec ID/Info                            : Picture based subtitle format used on BDs/HD-DVDs
    Language                                 : Spanish
    Default                                  : No
    Forced                                   : No
    Statistics Tags Issue                    : mkvmerge v15.0.0 ('Duel with the Devil') 64-bit 2018-03-21 01:57:26 / mkvmerge v15.0.0 ('Duel with the Devil') 64-bit 2018-03-21 01:57:26 / UTC 2018-03-17T12:59:10Z
    FromStats_BitRate                        : 35384
    FromStats_Duration                       : 01:42:57.338000000
    FromStats_FrameCount                     : 1588
    FromStats_StreamSize                     : 27322554

    Menu
    00:00:00.000                             : :Chapter 1
    00:05:17.192                             : :Chapter 2
    00:09:21.311                             : :Chapter 3
    00:12:19.405                             : :Chapter 4
    00:17:53.072                             : :Chapter 5
    00:23:09.138                             : :Chapter 6
    00:30:57.898                             : :Chapter 7
    00:33:57.494                             : :Chapter 8
    00:38:02.363                             : :Chapter 9
    00:43:48.167                             : :Chapter 10
    00:50:36.742                             : :Chapter 11
    00:55:37.084                             : :Chapter 12
    00:58:02.854                             : :Chapter 13
    01:01:13.879                             : :Chapter 14
    01:03:56.082                             : :Chapter 15
    01:08:16.801                             : :Chapter 16
    01:10:40.570                             : :Chapter 17
    01:13:21.314                             : :Chapter 18
    01:19:11.538                             : :Chapter 19
    01:22:10.092                             : :Chapter 20
    01:25:03.849                             : :Chapter 21
    01:29:41.751                             : :Chapter 22
    01:34:25.201                             : :Chapter 23
    01:36:02.590                             : :Chapter 24

  • Peso: 8.06 GiB

Sinopsis

En X-Men: La decisión final, el último capítulo de la trilogía cinematográfica de los “X-Men”, hay una “cura” para los mutantes que amenaza con alterar el curso de la historia. Por primera vez, los mutantes pueden elegir: seguir con su singularidad, aunque eso les aísle y les separe, o renunciar a sus poderes y convertirse en seres humanos normales. Los opuestos puntos de vista de los líderes mutantes, Charles Xavier, que aboga por la tolerancia, y Magneto, que cree en la supervivencia de los más aptos, se ven sometidos a la prueba definitiva: desencadenar la guerra que pondrá fin a todas las guerras…

Ficha técnica

Video trailer de la película

Enlaces de descarga

Rip de Bluray

Descargar X-Men The Last Stand (2006) Full 1080p Latino




Aportes de DPeliculasHDmega la pass es:dpeliculashdmega.org Aportes de CinemaniaHD la pass es:cinemaniahdd.com

Películas relacionadas

  • Si solo pudiera imaginar (2018) Full 1080p Latino

    2018
    Si solo pudiera imaginar (2018) Full 1080p Latino

    5.0 1 h 50 min 2018

    La historia real de la aclamada canción "I Can Only Imagine", la canción cristiana contemporánea más...

    Director: Jon Erwin

    Género: Drama

    Actores: Trace Adkins

  • El Justiciero (2014) Full 1080p Latino

    2014
    El Justiciero (2014) Full 1080p Latino

    4.0 2 h 12 min 2014

    Robert McCall, un antiguo agente de la CIA que lleva ahora una vida tranquila, abandona su retiro para...

    Director: Deirdre Horgan

    Género: Acción

    Actores: Yan Dron

  • James Bond Live and Let Die (1973) Full 1080p Latino

    1973
    James Bond Live and Let Die (1973) Full 1080p Latino

    0.0 2 h 1 min 1973

    En tan sólo veinticuatro horas, tres agentes del servicio secreto británico que investigaban una red...

    Director: Guy Hamilton

    Género: Acción

    Actores: Yaphet Kotto

Comentarios 1
  • ocpgaiden - 22 marzo, 2018

    muy buena peli, gracias