Worry Dolls (2016) 1080p Latino

1.836 vistas
1 estrella2 estrellas3 estrellas4 estrellas5 estrellas (1 votos, promedio: 5,00 de 5)
Cargando…

Información de Worry Dolls (2016) 1080p Latino

Datos de la película

  • Calidad: 1080p
  • Audio: Español Latino AC3 2.0 Capturado - Ingles AC3 5.1 BLURAY
  • Subtitulos: Español Latino SRT - Ingles SRT
  • Resolución: 1920x804p
  • Formato: MKV
  • Codec: H.264
  • Encoder: Dpelis
  • Mediainfo: Clic para Mostrar Datos Ver
  • Worry Dolls (2016) 1080p Latino.mkv
    Format                      : Matroska
    Format version              : Version 4 / Version 2
    File size                   : 2.39 GiB
    Duration                    : 1 h 25 min
    Overall bit rate            : 4 015 kb/s
    Movie name                  : DPeliculasHDMega.ORG
    Encoded date                : UTC 2017-08-26 00:30:04 / UTC 2017-08-25T23:25:13Z
    Writing application         : mkvmerge v10.0.0 ('To Drown In You') 64bit
    Writing library             : libebml v1.3.4 + libmatroska v1.4.5 / Lavf57.7.2

    Video
    ID                          : 1
    Format                      : AVC
    Format/Info                 : Advanced Video Codec
    Format profile              : High@L4.1
    Format settings, CABAC      : Yes
    Format settings, ReFrames   : 4 frames
    Codec ID                    : V_MPEG4/ISO/AVC
    Duration                    : 1 h 25 min
    Bit rate                    : 3 500 kb/s
    Width                       : 1 920 pixels
    Height                      : 804 pixels
    Display aspect ratio        : 2.40:1
    Frame rate mode             : Constant
    Frame rate                  : 23.976 (24000/1001) FPS
    Color space                 : YUV
    Chroma subsampling          : 4:2:0
    Bit depth                   : 8 bits
    Scan type                   : Progressive
    Bits/(Pixel*Frame)          : 0.095
    Stream size                 : 2.00 GiB (84%)
    Writing library             : x264 core 148 r2708 86b7198
    Encoding settings           : cabac=1 / ref=3 / deblock=1:0:0 / analyse=0x3:0x113 / me=hex / subme=7 / psy=1 / psy_rd=1.00:0.00 / mixed_ref=1 / me_range=16 / chroma_me=1 / trellis=1 / 8x8dct=1 / cqm=0 / deadzone=21,11 / fast_pskip=1 / chroma_qp_offset=-2 / threads=12 / lookahead_threads=2 / sliced_threads=0 / nr=0 / decimate=1 / interlaced=0 / bluray_compat=0 / constrained_intra=0 / bframes=3 / b_pyramid=2 / b_adapt=1 / b_bias=0 / direct=1 / weightb=1 / open_gop=0 / weightp=2 / keyint=240 / keyint_min=24 / scenecut=40 / intra_refresh=0 / rc_lookahead=40 / rc=abr / mbtree=1 / bitrate=3500 / ratetol=1.0 / qcomp=0.60 / qpmin=0 / qpmax=69 / qpstep=4 / vbv_maxrate=62500 / vbv_bufsize=78125 / nal_hrd=none / filler=0 / ip_ratio=1.40 / aq=1:1.00
    Default                     : Yes
    Forced                      : No
    Color range                 : Limited
    Color primaries             : BT.709
    Transfer characteristics    : BT.709
    Matrix coefficients         : BT.709
    Statistics Tags Issue       : mkvmerge v10.0.0 ('To Drown In You') 64bit 2017-08-26 00:30:04 / mkvmerge v10.0.0 ('To Drown In You') 64bit 2017-08-26 00:30:04 / UTC 2017-08-25T23:25:13Z
    FromStats_BitRate           : 3438817
    FromStats_Duration          : 01:25:06.226000000
    FromStats_FrameCount        : 122427
    FromStats_StreamSize        : 2194922216

    Audio #1
    ID                          : 2
    Format                      : AC-3
    Format/Info                 : Audio Coding 3
    Format settings, Endianness : Big
    Codec ID                    : A_AC3
    Duration                    : 1 h 25 min
    Bit rate mode               : Constant
    Bit rate                    : 192 kb/s
    Channel(s)                  : 2 channels
    Channel positions           : Front: L R
    Sampling rate               : 48.0 kHz
    Frame rate                  : 31.250 FPS (1536 spf)
    Bit depth                   : 16 bits
    Compression mode            : Lossy
    Delay relative to video     : -5 ms
    Stream size                 : 117 MiB (5%)
    Language                    : Spanish
    Service kind                : Complete Main
    Default                     : Yes
    Forced                      : No
    Statistics Tags Issue       : mkvmerge v10.0.0 ('To Drown In You') 64bit 2017-08-26 00:30:04 / mkvmerge v10.0.0 ('To Drown In You') 64bit 2017-08-26 00:30:04 / UTC 2017-08-25T23:25:13Z
    FromStats_BitRate           : 192000
    FromStats_Duration          : 01:25:08.768000000
    FromStats_FrameCount        : 159649
    FromStats_StreamSize        : 122610432

    Audio #2
    ID                          : 3
    Format                      : AC-3
    Format/Info                 : Audio Coding 3
    Format settings, Endianness : Big
    Codec ID                    : A_AC3
    Duration                    : 1 h 25 min
    Bit rate mode               : Constant
    Bit rate                    : 384 kb/s
    Channel(s)                  : 6 channels
    Channel positions           : Front: L C R, Side: L R, LFE
    Sampling rate               : 48.0 kHz
    Frame rate                  : 31.250 FPS (1536 spf)
    Bit depth                   : 16 bits
    Compression mode            : Lossy
    Delay relative to video     : -5 ms
    Stream size                 : 234 MiB (10%)
    Title                       : Surround
    Language                    : English
    Service kind                : Complete Main
    Default                     : No
    Forced                      : No
    Statistics Tags Issue       : mkvmerge v10.0.0 ('To Drown In You') 64bit 2017-08-26 00:30:04 / mkvmerge v10.0.0 ('To Drown In You') 64bit 2017-08-26 00:30:04 / UTC 2017-08-25T23:25:13Z
    FromStats_BitRate           : 384000
    FromStats_Duration          : 01:25:06.240000000
    FromStats_FrameCount        : 159570
    FromStats_StreamSize        : 245099520

    Text #1
    ID                          : 4
    Format                      : UTF-8
    Codec ID                    : S_TEXT/UTF8
    Codec ID/Info               : UTF-8 Plain Text
    Language                    : Spanish
    Default                     : Yes
    Forced                      : No
    Statistics Tags Issue       : mkvmerge v10.0.0 ('To Drown In You') 64bit 2017-08-26 00:30:04 / mkvmerge v10.0.0 ('To Drown In You') 64bit 2017-08-26 00:30:04 / UTC 2017-08-25T23:25:13Z
    FromStats_BitRate           : 40
    FromStats_Duration          : 01:14:58.618000000
    FromStats_FrameCount        : 685
    FromStats_StreamSize        : 22591

    Text #2
    ID                          : 5
    Format                      : UTF-8
    Codec ID                    : S_TEXT/UTF8
    Codec ID/Info               : UTF-8 Plain Text
    Language                    : English
    Default                     : No
    Forced                      : No
    Statistics Tags Issue       : mkvmerge v10.0.0 ('To Drown In You') 64bit 2017-08-26 00:30:04 / mkvmerge v10.0.0 ('To Drown In You') 64bit 2017-08-26 00:30:04 / UTC 2017-08-25T23:25:13Z
    FromStats_BitRate           : 40
    FromStats_Duration          : 01:19:55.917000000
    FromStats_FrameCount        : 717
    FromStats_StreamSize        : 24214

    Menu
    00:00:00.000                : :00:00:00.000
    00:05:11.603                : :00:05:11.520
    00:14:23.571                : :00:14:23.571
    00:23:30.743                : :00:23:30.618
    00:31:54.579                : :00:31:54.579
    00:40:23.338                : :00:40:23.338
    00:47:43.861                : :00:47:43.736
    00:53:37.423                : :00:53:37.339
    01:01:37.569                : :01:01:37.569
    01:07:57.282                : :01:07:57.240
    01:14:35.429                : :01:14:35.388
    01:21:42.398                : :01:21:42.356

  • Peso: 2.39 GB

Sinopsis

Henry Leonard Bale, un brutal asesino en serie, muere en manos de la policía, pero su legado sigue con vida. Cuando una cadena de crímenes atroces se desata en un tranquilo pueblo, el detective Matt Williams descubre algo aparentemente imposible: todas las muertes tienen su origen en un juego de talismanes que Bale recibió cuando era pequeño. Lo que Williams no sabe es si logrará acabar con la maldición.

Ficha técnica

  • Titulo original: Worry Dolls
  • Fecha de lanzamiento: 27-06-2016 (United States of America)
  • Director: Desi Fowl, Padraig Reynolds
  • Género: Suspense, Terror
  • Puntuación: 5.0 1 votos
  • Duración:
    1h 25m

Video trailer de la película

Enlaces de descarga

Rip de Bluray

Descargar Worry Dolls (2016) 1080p Latino




Aportes de DPeliculasHDmega la pass es:dpeliculashdmega.org Aportes de CinemaniaHD la pass es:cinemaniahdd.com
Guardado en : Suspense , Terror

Películas relacionadas

  • Isle of the Dead (2016) WEB-DL 1080p Latino

    2016
    Isle of the Dead (2016) WEB-DL 1080p Latino

    0.0 1 h 27 min 2016

    Extraños atrapados en una isla aislada luchan por sobrevivir contra hordas de muertos.     Latino...

    Director: Nick Lyon

    Género: Terror

    Actores: Todd Cattell

  • El Justiciero (2014) Full 1080p Latino

    2014
    El Justiciero (2014) Full 1080p Latino

    4.0 2 h 12 min 2014

    Robert McCall, un antiguo agente de la CIA que lleva ahora una vida tranquila, abandona su retiro para...

    Director: Deirdre Horgan

    Género: Acción

    Actores: Yan Dron

  • James Bond Live and Let Die (1973) Full 1080p Latino

    1973
    James Bond Live and Let Die (1973) Full 1080p Latino

    0.0 2 h 1 min 1973

    En tan sólo veinticuatro horas, tres agentes del servicio secreto británico que investigaban una red...

    Director: Guy Hamilton

    Género: Acción

    Actores: Yaphet Kotto

Comentarios 0