Wanted (Se busca) (2008) [Open Matte] WEB-DL 1080p Latino

523 vistas
1 estrella2 estrellas3 estrellas4 estrellas5 estrellas (1 votos, promedio: 5,00 de 5)
Cargando…

Información de Wanted (Se busca) (2008) [Open Matte] WEB-DL 1080p Latino

Datos de la película

  • Calidad: WEBDL
  • Audio: Español Latino AC3 5.1 BLURAY - Ingles DTS 5.1 BLURAY
  • Subtitulos: Español Latino SRT
  • Resolución: 1920X1080p
  • Formato: MKV
  • Codec: H.264
  • Encoder: Dracarys
  • Mediainfo: Clic para Mostrar Datos Ver
  • Format                                   : Matroska
    Format version                           : Version 4 / Version 2
    File size                                : 11.1 GiB
    Duration                                 : 1 h 49 min
    Overall bit rate mode                    : Variable
    Overall bit rate                         : 14.5 Mb/s
    Movie name                               : CinemaniaHDD.com
    Encoded date                             : UTC 2018-01-28 04:13:10
    Writing application                      : mkvmerge v15.0.0 ('Duel with the Devil') 64-bit
    Writing library                          : libebml v1.3.5 + libmatroska v1.4.5

    Video
    ID                                       : 1
    Format                                   : AVC
    Format/Info                              : Advanced Video Codec
    Format profile                           : High@L4
    Format settings                          : CABAC / 4 Ref Frames
    Format settings, CABAC                   : Yes
    Format settings, RefFrames               : 4 frames
    Codec ID                                 : V_MPEG4/ISO/AVC
    Duration                                 : 1 h 49 min
    Bit rate mode                            : Variable
    Bit rate                                 : 12.5 Mb/s
    Maximum bit rate                         : 15.0 Mb/s
    Width                                    : 1 920 pixels
    Height                                   : 1 080 pixels
    Display aspect ratio                     : 16:9
    Frame rate mode                          : Constant
    Frame rate                               : 23.976 (24000/1001) FPS
    Color space                              : YUV
    Chroma subsampling                       : 4:2:0
    Bit depth                                : 8 bits
    Scan type                                : Progressive
    Bits/(Pixel*Frame)                       : 0.252
    Stream size                              : 9.61 GiB (86%)
    Title                                    : Wanted (Se busca) (2008) [Open Matte] WEB-DL 1080p Latino
    Language                                 : English
    Default                                  : Yes
    Forced                                   : No
    Color range                              : Limited
    Color primaries                          : BT.709
    Transfer characteristics                 : BT.709
    Matrix coefficients                      : BT.709

    Audio #1
    ID                                       : 2
    Format                                   : AC-3
    Format/Info                              : Audio Coding 3
    Format settings, Endianness              : Big
    Codec ID                                 : A_AC3
    Duration                                 : 1 h 49 min
    Bit rate mode                            : Constant
    Bit rate                                 : 448 kb/s
    Channel(s)                               : 6 channels
    Channel positions                        : Front: L C R, Side: L R, LFE
    Sampling rate                            : 48.0 kHz
    Frame rate                               : 31.250 FPS (1536 SPF)
    Bit depth                                : 16 bits
    Compression mode                         : Lossy
    Delay relative to video                  : 16 ms
    Stream size                              : 352 MiB (3%)
    Language                                 : Spanish
    Service kind                             : Complete Main
    Default                                  : Yes
    Forced                                   : No

    Audio #2
    ID                                       : 3
    Format                                   : DTS
    Format/Info                              : Digital Theater Systems
    Mode                                     : 16
    Format settings, Endianness              : Big
    Codec ID                                 : A_DTS
    Duration                                 : 1 h 49 min
    Bit rate mode                            : Constant
    Bit rate                                 : 1 509 kb/s
    Channel(s)                               : 6 channels
    Channel positions                        : Front: L C R, Side: L R, LFE
    Sampling rate                            : 48.0 kHz
    Frame rate                               : 93.750 FPS (512 SPF)
    Bit depth                                : 24 bits
    Compression mode                         : Lossy
    Delay relative to video                  : 6 ms
    Stream size                              : 1.16 GiB (10%)
    Language                                 : English
    Default                                  : No
    Forced                                   : No

    Text
    ID                                       : 4
    Format                                   : UTF-8
    Codec ID                                 : S_TEXT/UTF8
    Codec ID/Info                            : UTF-8 Plain Text
    Duration                                 : 1 h 41 min
    Bit rate                                 : 37 b/s
    Count of elements                        : 824
    Stream size                              : 27.8 KiB (0%)
    Language                                 : Spanish
    Default                                  : No
    Forced                                   : No

    Menu
    00:00:00.000                             : en:The Fraternity
    00:07:00.461                             : en:Stressed Out
    00:12:57.119                             : en:Greatest Assassin
    00:20:57.102                             : en:One of Us
    00:26:24.814                             : en:I'm the Man
    00:32:10.624                             : en:In the Factory
    00:37:29.609                             : en:Feeling Good
    00:42:04.018                             : en:One By One
    00:45:21.550                             : en:Who Are You?
    00:51:52.473                             : en:Loom of Fate
    00:56:23.545                             : en:First Target
    01:00:58.608                             : en:Second Target
    01:04:00.100                             : en:A Message
    01:09:44.231                             : en:Meeting the Maker
    01:13:32.151                             : en:Off Track
    01:20:25.772                             : en:Perfet Weapon
    01:27:11.086                             : en:Kill Him
    01:33:25.137                             : en:Follow the Code
    01:39:27.190                             : en:Taking Control
    01:42:22.856                             : en:End Titles

  • Peso: 11.1 GiB

Sinopsis

Wesley Gibson (James McAvoy) tiene 25 años y es el zángano más desencantado y aburrido que habita en el planeta. Su jefe se mete con él sin parar, su novia no le hace caso y su vida carece de alicientes. Todos los que le conocen están convencidos de que este vago nato nunca llegará a nada. A Wes sólo le queda esperar que el tiempo pase hasta que muera de forma rutinaria. Pero todo cambia cuando conoce a una mujer llamada Fox (Angelina Jolie). Después del asesinato del padre de Wes, al que veía muy poco, la letal y sexy Fox recluta al joven para la Fraternity (Fraternidad), una sociedad secreta que enseña al joven a desarrollar sus poderes adormecidos para vengar la muerte de su padre.

Ficha técnica

  • Titulo original: Wanted
  • Fecha de lanzamiento: 19-06-2008 (Germany, United States of America)
  • Director: Timur Bekmambetov
  • Género: Acción, Crimen, Suspense
  • Puntuación: 5.0 1 votos
  • Duración:
    1 h 49 min

Video trailer de la película

Enlaces de descarga

Rip de Bluray

Descargar Wanted (Se busca) (2008) [Open Matte] WEB-DL 1080p Latino




Aportes de DPeliculasHDmega la pass es:dpeliculashdmega.org Aportes de CinemaniaHD la pass es:cinemaniahdd.com
Guardado en : Acción , Crimen , Suspense

Películas relacionadas

  • El Justiciero (2014) Full 1080p Latino

    2014
    El Justiciero (2014) Full 1080p Latino

    4.0 2 h 12 min 2014

    Robert McCall, un antiguo agente de la CIA que lleva ahora una vida tranquila, abandona su retiro para...

    Director: Deirdre Horgan

    Género: Acción

    Actores: Yan Dron

  • James Bond Live and Let Die (1973) Full 1080p Latino

    1973
    James Bond Live and Let Die (1973) Full 1080p Latino

    0.0 2 h 1 min 1973

    En tan sólo veinticuatro horas, tres agentes del servicio secreto británico que investigaban una red...

    Director: Guy Hamilton

    Género: Acción

    Actores: Yaphet Kotto

Comentarios 5
  • angel - 17 marzo, 2018

    la parte 3 esta caida en google drive y en 1fichier todos los link caidos

    • dpelis - 18 marzo, 2018

      enlace agregado mega.

  • #Cinefilo - 28 enero, 2018

    Woooooo!!! Es Genial, descargada , Gracias

  • Jonna - 28 enero, 2018

    Una pregunta:
    A parte del Open Matte, en cuanto a calidad es Significativamente inferior a la plateada posteada o hay mucha diferencia de video?
    No me decido cual descargar 😀 Muchas gracias

    • Dracarys - 28 enero, 2018

      La diferencia con la portada Plateada es minima.