Valerian y la ciudad de los mil planetas (2017) 1080p Latino

3.742 vistas
1 estrella2 estrellas3 estrellas4 estrellas5 estrellas (1 votos, promedio: 5,00 de 5)
Cargando…

Información de Valerian y la ciudad de los mil planetas (2017) 1080p Latino

Datos de la película

  • Calidad: 1080p
  • Audio: Español Latino AC3 5.1 BLURAY - Ingles AC3 5.1 BLURAY
  • Subtitulos: Español Latino SRT
  • Resolución: 1920X804
  • Formato: MKV
  • Codec: H.264
  • Encoder: Dpelis
  • Mediainfo: Clic para Mostrar Datos Ver
  • Format                                   : Matroska
    Format version                           : Version 4 / Version 2
    File size                                : 4.00 GiB
    Duration                                 : 2 h 17 min
    Overall bit rate                         : 4 180 kb/s
    Movie name                               : dpeliculashdmega.org
    Encoded date                             : UTC 2017-11-10 14:41:24 / UTC 2017-11-10T08:54:27Z
    Writing application                      : mkvmerge v15.0.0 ('Duel with the Devil') 64-bit
    Writing library                          : libebml v1.3.5 + libmatroska v1.4.5 / Lavf57.7.2

    Video
    ID                                       : 1
    Format                                   : AVC
    Format/Info                              : Advanced Video Codec
    Format profile                           : High@L4.1
    Format settings                          : CABAC / 5 Ref Frames
    Format settings, CABAC                   : Yes
    Format settings, RefFrames               : 5 frames
    Codec ID                                 : V_MPEG4/ISO/AVC
    Duration                                 : 2 h 17 min
    Bit rate                                 : 3 329 kb/s
    Nominal bit rate                         : 3 500 kb/s
    Width                                    : 1 920 pixels
    Height                                   : 804 pixels
    Display aspect ratio                     : 2.40:1
    Frame rate mode                          : Constant
    Frame rate                               : 23.976 (24000/1001) FPS
    Color space                              : YUV
    Chroma subsampling                       : 4:2:0
    Bit depth                                : 8 bits
    Scan type                                : Progressive
    Bits/(Pixel*Frame)                       : 0.090
    Stream size                              : 3.19 GiB (80%)
    Title                                    : Valerian y la ciudad de los mil planetas (2017) 1080p Latino
    Writing library                          : x264 core 148 r2708 86b7198
    Encoding settings                        : cabac=1 / ref=5 / deblock=1:0:0 / analyse=0x3:0x113 / me=umh / subme=8 / psy=1 / psy_rd=1.00:0.00 / mixed_ref=1 / me_range=16 / chroma_me=1 / trellis=1 / 8x8dct=1 / cqm=0 / deadzone=21,11 / fast_pskip=1 / chroma_qp_offset=-2 / threads=25 / lookahead_threads=4 / sliced_threads=0 / nr=0 / decimate=1 / interlaced=0 / bluray_compat=0 / constrained_intra=0 / bframes=3 / b_pyramid=2 / b_adapt=2 / b_bias=0 / direct=3 / weightb=1 / open_gop=0 / weightp=2 / keyint=240 / keyint_min=24 / scenecut=40 / intra_refresh=0 / rc_lookahead=50 / rc=abr / mbtree=1 / bitrate=3500 / ratetol=1.0 / qcomp=0.60 / qpmin=0 / qpmax=69 / qpstep=4 / vbv_maxrate=62500 / vbv_bufsize=78125 / nal_hrd=none / filler=0 / ip_ratio=1.40 / aq=1:1.00
    Language                                 : English
    Default                                  : Yes
    Forced                                   : No
    Color range                              : Limited
    Color primaries                          : BT.709
    Transfer characteristics                 : BT.709
    Matrix coefficients                      : BT.709
    Statistics Tags Issue                    : mkvmerge v15.0.0 ('Duel with the Devil') 64-bit 2017-11-10 14:41:24 / mkvmerge v15.0.0 ('Duel with the Devil') 64-bit 2017-11-10 14:41:24 / UTC 2017-11-10T08:54:27Z
    FromStats_BitRate                        : 3409751
    FromStats_Duration                       : 02:17:03.257000000
    FromStats_FrameCount                     : 197161
    FromStats_StreamSize                     : 3504907979

    Audio #1
    ID                                       : 2
    Format                                   : AC-3
    Format/Info                              : Audio Coding 3
    Format settings, Endianness              : Big
    Codec ID                                 : A_AC3
    Duration                                 : 2 h 17 min
    Bit rate mode                            : Constant
    Bit rate                                 : 384 kb/s
    Channel(s)                               : 6 channels
    Channel positions                        : Front: L C R, Side: L R, LFE
    Sampling rate                            : 48.0 kHz
    Frame rate                               : 31.250 FPS (1536 SPF)
    Bit depth                                : 16 bits
    Compression mode                         : Lossy
    Delay relative to video                  : -5 ms
    Stream size                              : 376 MiB (9%)
    Title                                    : Latino-AC3
    Language                                 : Spanish
    Service kind                             : Complete Main
    Default                                  : Yes
    Forced                                   : No
    Statistics Tags Issue                    : mkvmerge v15.0.0 ('Duel with the Devil') 64-bit 2017-11-10 14:41:24 / mkvmerge v15.0.0 ('Duel with the Devil') 64-bit 2017-11-10 14:41:24 / UTC 2017-11-10T08:54:27Z
    FromStats_BitRate                        : 384000
    FromStats_Duration                       : 02:17:03.488000000
    FromStats_FrameCount                     : 256984
    FromStats_StreamSize                     : 394727424

    Audio #2
    ID                                       : 3
    Format                                   : AC-3
    Format/Info                              : Audio Coding 3
    Format settings, Endianness              : Big
    Codec ID                                 : A_AC3
    Duration                                 : 2 h 17 min
    Bit rate mode                            : Constant
    Bit rate                                 : 384 kb/s
    Channel(s)                               : 6 channels
    Channel positions                        : Front: L C R, Side: L R, LFE
    Sampling rate                            : 48.0 kHz
    Frame rate                               : 31.250 FPS (1536 SPF)
    Bit depth                                : 16 bits
    Compression mode                         : Lossy
    Delay relative to video                  : -5 ms
    Stream size                              : 376 MiB (9%)
    Title                                    : Ingles-AC3
    Language                                 : English
    Service kind                             : Complete Main
    Default                                  : No
    Forced                                   : No
    Statistics Tags Issue                    : mkvmerge v15.0.0 ('Duel with the Devil') 64-bit 2017-11-10 14:41:24 / mkvmerge v15.0.0 ('Duel with the Devil') 64-bit 2017-11-10 14:41:24 / UTC 2017-11-10T08:54:27Z
    FromStats_BitRate                        : 384000
    FromStats_Duration                       : 02:17:03.264000000
    FromStats_FrameCount                     : 256977
    FromStats_StreamSize                     : 394716672

    Text
    ID                                       : 4
    Format                                   : UTF-8
    Codec ID                                 : S_TEXT/UTF8
    Codec ID/Info                            : UTF-8 Plain Text
    Language                                 : Spanish
    Default                                  : No
    Forced                                   : No
    Statistics Tags Issue                    : mkvmerge v15.0.0 ('Duel with the Devil') 64-bit 2017-11-10 14:41:24 / mkvmerge v15.0.0 ('Duel with the Devil') 64-bit 2017-11-10 14:41:24 / UTC 2017-11-10T08:54:27Z
    FromStats_BitRate                        : 57
    FromStats_Duration                       : 02:10:14.532000000
    FromStats_FrameCount                     : 1574
    FromStats_StreamSize                     : 55786

    Menu
    00:00:00.000                             : :Chapter 1
    00:12:35.797                             : :Chapter 2
    00:17:29.590                             : :Chapter 3
    00:23:35.831                             : :Chapter 4
    00:32:45.964                             : :Chapter 5
    00:41:19.310                             : :Chapter 6
    00:47:15.666                             : :Chapter 7
    00:56:12.536                             : :Chapter 8
    01:04:25.695                             : :Chapter 9
    01:11:28.075                             : :Chapter 10
    01:20:25.070                             : :Chapter 11
    01:28:13.705                             : :Chapter 12
    01:35:53.998                             : :Chapter 13
    01:41:35.047                             : :Chapter 14
    01:53:37.853                             : :Chapter 15
    02:02:22.585                             : :Chapter 16

  • Peso: 4.00 GiB

Sinopsis

En el siglo XXVIII, Valerian y Laureline conforman un equipo de agentes especiales encargados de mantener el orden en todos los territorios humanos. Bajo el mando del Ministro de Defensa, los dos se embarcan en una misión a la asombrosa ciudad de Alpha, una metrópolis en constante expansión, donde especies provenientes de todo el universo han convergido durante siglos para compartir conocimientos, inteligencias y culturas. Un manto de misterio rodea a Alpha, una fuerza oscura que amenaza la pacífica existencia de la ciudad de los mil planetas, y Valerian y Laureline deben darse prisa para descubrir la amenaza y salvaguardar no sólo a Alfa, sino el futuro del universo.

Ficha técnica

Video trailer de la película

Enlaces de descarga

Rip de Bluray

Descargar Valerian y la ciudad de los mil planetas (2017) 1080p Latino




Aportes de DPeliculasHDmega la pass es:dpeliculashdmega.org Aportes de CinemaniaHD la pass es:cinemaniahdd.com
Guardado en : Acción , Aventura , Ciencia ficción

Películas relacionadas

  • Occupation (2018) WEBDL 1080p Subtitulada

    2018
    Occupation (2018) WEBDL 1080p Subtitulada

    0.0 1h 59m 2018

    El film se centra en un grupo de civiles que ven como su pequeño pueblo en Australia es aniquilado por...

    Director: Luke Sparke

    Género: Acción

    Actores: Temuera Morrison

  • El Justiciero (2014) Full 1080p Latino

    2014
    El Justiciero (2014) Full 1080p Latino

    4.0 2 h 12 min 2014

    Robert McCall, un antiguo agente de la CIA que lleva ahora una vida tranquila, abandona su retiro para...

    Director: Deirdre Horgan

    Género: Acción

    Actores: Yan Dron

  • James Bond Live and Let Die (1973) Full 1080p Latino

    1973
    James Bond Live and Let Die (1973) Full 1080p Latino

    0.0 2 h 1 min 1973

    En tan sólo veinticuatro horas, tres agentes del servicio secreto británico que investigaban una red...

    Director: Guy Hamilton

    Género: Acción

    Actores: Yaphet Kotto

Comentarios 9
  • Raul - 14 noviembre, 2017

    Gracias por subirla. Para cuando la plateada

    • dpelis - 14 noviembre, 2017

      como miercoles o jueves

  • Cr. Jose - 11 noviembre, 2017

    Amigos mil gracias por la película, una pregunta saldrá versión 3D?

    • Dpelis2 pelis2 - 11 noviembre, 2017

      Claro que si pero mas a delante a lo que se libere esa versión!

  • YO - 11 noviembre, 2017

    no tienes los pgs?

    • Dpelis2 pelis2 - 11 noviembre, 2017

      Cuando salga la versión plateada tendrá PGS

  • jonathan - 10 noviembre, 2017

    la contraseña no sirve ninguna de las 2

  • gaaq08 - 10 noviembre, 2017

    Muchas gracias, son lo máximo, esperando caratula gris.
    Podrían subir si es posible The Voices 2014. muchas gracias.