Turbo (2013) Full 1080p Latino

881 vistas
1 estrella2 estrellas3 estrellas4 estrellas5 estrellas (3 votos, promedio: 5,00 de 5)
Cargando…

Información de Turbo (2013) Full 1080p Latino

Datos de la película

  • Calidad: Full 1080p
  • Audio: Español Latino AC3 5.1 BLURAY - Ingles DTS 5.1 BLURAY
  • Subtitulos: Español Latino PGS - Ingles PGS
  • Resolución: 1080X1080p
  • Formato: MKV
  • Codec: H.264
  • Encoder: Dracarys
  • Mediainfo: Clic para Mostrar Datos Ver
  • Format                                   : Matroska
    Format version                           : Version 4 / Version 2
    File size                                : 3.63 GiB
    Duration                                 : 1 h 35 min
    Overall bit rate                         : 5 433 kb/s
    Movie name                               : CinemaniaHDD.com
    Encoded date                             : UTC 2018-01-22 03:18:02 / UTC 2018-01-22T01:03:23Z
    Writing application                      : mkvmerge v15.0.0 ('Duel with the Devil') 64-bit
    Writing library                          : libebml v1.3.5 + libmatroska v1.4.5 / Lavf57.7.2

    Video
    ID                                       : 1
    Format                                   : AVC
    Format/Info                              : Advanced Video Codec
    Format profile                           : High@L4.1
    Format settings                          : CABAC / 4 Ref Frames
    Format settings, CABAC                   : Yes
    Format settings, RefFrames               : 4 frames
    Codec ID                                 : V_MPEG4/ISO/AVC
    Duration                                 : 1 h 35 min
    Bit rate                                 : 3 368 kb/s
    Width                                    : 1 920 pixels
    Height                                   : 1 080 pixels
    Display aspect ratio                     : 16:9
    Frame rate mode                          : Constant
    Frame rate                               : 23.976 (24000/1001) FPS
    Color space                              : YUV
    Chroma subsampling                       : 4:2:0
    Bit depth                                : 8 bits
    Scan type                                : Progressive
    Bits/(Pixel*Frame)                       : 0.068
    Stream size                              : 2.25 GiB (62%)
    Title                                    : Turbo (2013) Full 1080p Latino
    Writing library                          : x264 core 148 r2708 86b7198
    Encoding settings                        : cabac=1 / ref=4 / deblock=1:0:0 / analyse=0x3:0x133 / me=esa / subme=10 / psy=1 / psy_rd=1.00:0.00 / mixed_ref=1 / me_range=24 / chroma_me=1 / trellis=2 / 8x8dct=1 / cqm=0 / deadzone=21,11 / fast_pskip=1 / chroma_qp_offset=-2 / threads=34 / lookahead_threads=5 / sliced_threads=0 / nr=0 / decimate=1 / interlaced=0 / bluray_compat=0 / constrained_intra=0 / bframes=8 / b_pyramid=2 / b_adapt=2 / b_bias=0 / direct=3 / weightb=1 / open_gop=0 / weightp=2 / keyint=240 / keyint_min=24 / scenecut=40 / intra_refresh=0 / rc_lookahead=60 / rc=crf / mbtree=1 / crf=20.0 / qcomp=0.60 / qpmin=0 / qpmax=69 / qpstep=4 / vbv_maxrate=62500 / vbv_bufsize=78125 / crf_max=0.0 / nal_hrd=none / filler=0 / ip_ratio=1.40 / aq=1:1.00
    Language                                 : English
    Default                                  : Yes
    Forced                                   : No
    Color range                              : Limited
    Color primaries                          : BT.709
    Transfer characteristics                 : BT.709
    Matrix coefficients                      : BT.709
    Statistics Tags Issue                    : mkvmerge v15.0.0 ('Duel with the Devil') 64-bit 2018-01-22 03:18:02 / mkvmerge v15.0.0 ('Duel with the Devil') 64-bit 2018-01-22 03:18:02 / UTC 2018-01-22T01:03:23Z
    FromStats_BitRate                        : 3451138
    FromStats_Duration                       : 01:35:40.694000000
    FromStats_FrameCount                     : 137639
    FromStats_StreamSize                     : 2476490987

    Audio #1
    ID                                       : 2
    Format                                   : AC-3
    Format/Info                              : Audio Coding 3
    Format settings, Endianness              : Big
    Codec ID                                 : A_AC3
    Duration                                 : 1 h 35 min
    Bit rate mode                            : Constant
    Bit rate                                 : 448 kb/s
    Channel(s)                               : 6 channels
    Channel positions                        : Front: L C R, Side: L R, LFE
    Sampling rate                            : 48.0 kHz
    Frame rate                               : 31.250 FPS (1536 SPF)
    Bit depth                                : 16 bits
    Compression mode                         : Lossy
    Stream size                              : 307 MiB (8%)
    Language                                 : Spanish
    Service kind                             : Complete Main
    Default                                  : Yes
    Forced                                   : No
    Statistics Tags Issue                    : mkvmerge v15.0.0 ('Duel with the Devil') 64-bit 2018-01-22 03:18:02 / mkvmerge v15.0.0 ('Duel with the Devil') 64-bit 2018-01-22 03:18:02 / UTC 2018-01-22T01:03:23Z
    FromStats_BitRate                        : 448000
    FromStats_Duration                       : 01:35:40.736000000
    FromStats_FrameCount                     : 179398
    FromStats_StreamSize                     : 321481216

    Audio #2
    ID                                       : 3
    Format                                   : DTS
    Format/Info                              : Digital Theater Systems
    Format profile                           : ES Matrix / Core
    Mode                                     : 16
    Format settings, Endianness              : Big
    Codec ID                                 : A_DTS
    Duration                                 : 1 h 35 min
    Bit rate mode                            : Constant
    Bit rate                                 : 1 509 kb/s
    Channel(s)                               : 7 channels / 6 channels
    Channel positions                        : Front: L C R, Side: L R, Back: C, LFE / Front: L C R, Side: L R, LFE
    Sampling rate                            : 48.0 kHz
    Frame rate                               : 93.750 FPS (512 SPF)
    Bit depth                                : 24 bits
    Compression mode                         : Lossy
    Stream size                              : 1.01 GiB (28%)
    Language                                 : English
    Default                                  : No
    Forced                                   : No
    Statistics Tags Issue                    : mkvmerge v15.0.0 ('Duel with the Devil') 64-bit 2018-01-22 03:18:02 / mkvmerge v15.0.0 ('Duel with the Devil') 64-bit 2018-01-22 03:18:02 / UTC 2018-01-22T01:03:23Z
    FromStats_BitRate                        : 1508999
    FromStats_Duration                       : 01:35:40.726000000
    FromStats_FrameCount                     : 538193
    FromStats_StreamSize                     : 1082844316

    Text #1
    ID                                       : 4
    Format                                   : PGS
    Muxing mode                              : zlib
    Codec ID                                 : S_HDMV/PGS
    Codec ID/Info                            : Picture based subtitle format used on BDs/HD-DVDs
    Language                                 : English
    Default                                  : No
    Forced                                   : No
    Statistics Tags Issue                    : mkvmerge v15.0.0 ('Duel with the Devil') 64-bit 2018-01-22 03:18:02 / mkvmerge v15.0.0 ('Duel with the Devil') 64-bit 2018-01-22 03:18:02 / UTC 2018-01-22T01:03:23Z
    FromStats_BitRate                        : 44793
    FromStats_Duration                       : 01:30:45.231000000
    FromStats_FrameCount                     : 3078
    FromStats_StreamSize                     : 30488891

    Text #2
    ID                                       : 5
    Format                                   : PGS
    Muxing mode                              : zlib
    Codec ID                                 : S_HDMV/PGS
    Codec ID/Info                            : Picture based subtitle format used on BDs/HD-DVDs
    Language                                 : Spanish
    Default                                  : No
    Forced                                   : No
    Statistics Tags Issue                    : mkvmerge v15.0.0 ('Duel with the Devil') 64-bit 2018-01-22 03:18:02 / mkvmerge v15.0.0 ('Duel with the Devil') 64-bit 2018-01-22 03:18:02 / UTC 2018-01-22T01:03:23Z
    FromStats_BitRate                        : 30428
    FromStats_Duration                       : 01:34:21.322000000
    FromStats_FrameCount                     : 2250
    FromStats_StreamSize                     : 21533085

    Menu
    00:00:00.000                             : :Chapter 1
    00:04:59.257                             : :Chapter 2
    00:09:59.849                             : :Chapter 3
    00:14:59.315                             : :Chapter 4
    00:19:59.824                             : :Chapter 5
    00:24:59.206                             : :Chapter 6
    00:29:59.464                             : :Chapter 7
    00:34:59.889                             : :Chapter 8
    00:39:59.606                             : :Chapter 9
    00:44:59.238                             : :Chapter 10
    00:49:59.371                             : :Chapter 11
    00:54:59.963                             : :Chapter 12
    00:59:59.888                             : :Chapter 13

  • Peso: 3.63 GiB

Sinopsis

Turbo es un caracol de jardín con un sueño imposible: convertirse en el caracol más rápido del mundo. Cuando un extraño accidente le da el poder de la súper-velocidad, Turbo intentará cumplir su sueño. Primero se hará amigo de una peculiar pandilla de caracoles callejeros tuneados y obsesionados con la velocidad, y allí Turbo aprenderá que nadie llega a tener éxito por sí solo. Así que coloca su corazón y su concha en la línea de salida dispuesto a ayudar a sus colegas a lograr sus sueños, antes de intentar alcanzar su sueño imposible: ganar las 500 millas de Indianápolis.

Ficha técnica

Video trailer de la película

Enlaces de descarga

Rip de Bluray

Descargar Turbo (2013) Full 1080p Latino




Aportes de DPeliculasHDmega la pass es:dpeliculashdmega.org Aportes de CinemaniaHD la pass es:cinemaniahdd.com

Películas relacionadas

  • Paciente Cero (2018) Full 1080p Latino

    2018
    Paciente Cero (2018) Full 1080p Latino

    3.7 1h 26m 2018

    Paciente Cero (2018) Full 1080p Latino; Mega, Google Drive. Tras una pandemia sin precedentes, la Humanidad...

    Director: Stefan Ruzowitzky

    Género: Acción

    Actores: Yumiko Hanasaka

  • La jungla (2017) Full 1080p Latino

    2017
    La jungla (2017) Full 1080p Latino

    4.0 1h 55m 2017

    Descargar La jungla (2017) Full 1080p Latino; Mega, google Drive. Cuenta la historia real de Yossi Ghinsberg,...

    Director: Greg McLean

    Género: Aventura

    Actores: Yasmin Kassim

  • Death Race 4 Beyond Anarchy (2018) Full 1080p Latino

    2018
    Death Race 4 Beyond Anarchy (2018) Full 1080p Latino

    0.0 1h 51m 2018

    Danny Trejo regresa como el despiadado corredor de apuestas, Goldberg, en la carrera de muerte más salvaje...

    Director: Mike Elliott

    Género: Acción

    Actores: Zach McGowan

  • La Balada de Lefty Brown (2017) Full 1080p Latino

    2017
    La Balada de Lefty Brown (2017) Full 1080p Latino

    3.0 1h 51m 2017

    Descargar La Balada de Lefty Brown (2017) Full 1080p Latino; Mega, Google Drive. Durante décadas, Lefty...

    Director: Jared Moshé

    Género: FULL 1080p Plateadas

    Actores: Tyson Gerhardt

  • El reverendo (2017) Full 1080p Latino

    2018
    El reverendo (2017) Full 1080p Latino

    2.0 1h 53m 2018

    Descargar El reverendo [First Reformed] (2017) 1080p Latino; Mega, Google Drive. El encuentro con un...

    Director: Paul Schrader

    Género: Drama

    Actores: Victoria Hill

Comentarios 2
  • Jonna - 09 febrero, 2018

    Gracias, Bajando

  • Tio Higuera - 27 enero, 2018

    Muy buena.