Toy Story 3 (2010) Full 1080p Latino | CinemaniaHD - Descargar Peliculas 1080p Mega Google Drive

Toy Story 3 (2010) Full 1080p Latino

1.400 vistas
1 estrella2 estrellas3 estrellas4 estrellas5 estrellas (2 votos, promedio: 5,00 de 5)
Cargando…

Información de Toy Story 3 (2010) Full 1080p Latino

Datos de la película

  • Calidad: Full 1080p
  • Audio: Español Latino AC3 5.1 BLURAY - Ingles DTS 5.1 BLURAY
  • Subtitulos: Español Latino PGS - Ingles PGS
  • Resolución: 1920X1080
  • Formato: MKV
  • Codec: H.264
  • Encoder: Dpelis
  • Mediainfo: Clic para Mostrar Datos Ver
  • Format                                   : Matroska
    Format version                           : Version 4 / Version 2
    File size                                : 4.55 GiB
    Duration                                 : 1 h 43 min
    Overall bit rate                         : 6 318 kb/s
    Movie name                               : dpeliculashdmeha.org
    Encoded date                             : UTC 2017-11-23 06:32:46 / UTC 2017-11-14T00:05:22Z
    Writing application                      : mkvmerge v15.0.0 ('Duel with the Devil') 64-bit
    Writing library                          : libebml v1.3.5 + libmatroska v1.4.5 / Lavf57.7.2

    Video
    ID                                       : 1
    Format                                   : AVC
    Format/Info                              : Advanced Video Codec
    Format profile                           : High@L4.1
    Format settings                          : CABAC / 4 Ref Frames
    Format settings, CABAC                   : Yes
    Format settings, RefFrames               : 4 frames
    Codec ID                                 : V_MPEG4/ISO/AVC
    Duration                                 : 1 h 43 min
    Bit rate                                 : 4 043 kb/s
    Width                                    : 1 920 pixels
    Height                                   : 1 080 pixels
    Display aspect ratio                     : 16:9
    Frame rate mode                          : Constant
    Frame rate                               : 23.976 (24000/1001) FPS
    Color space                              : YUV
    Chroma subsampling                       : 4:2:0
    Bit depth                                : 8 bits
    Scan type                                : Progressive
    Bits/(Pixel*Frame)                       : 0.081
    Stream size                              : 2.91 GiB (64%)
    Title                                    : Toy Story 3 (2010) Full 1080p Latino
    Writing library                          : x264 core 148 r2708 86b7198
    Encoding settings                        : cabac=1 / ref=4 / deblock=1:0:0 / analyse=0x3:0x133 / me=esa / subme=10 / psy=1 / psy_rd=1.00:0.00 / mixed_ref=1 / me_range=24 / chroma_me=1 / trellis=2 / 8x8dct=1 / cqm=0 / deadzone=21,11 / fast_pskip=1 / chroma_qp_offset=-2 / threads=34 / lookahead_threads=5 / sliced_threads=0 / nr=0 / decimate=1 / interlaced=0 / bluray_compat=0 / constrained_intra=0 / bframes=8 / b_pyramid=2 / b_adapt=2 / b_bias=0 / direct=3 / weightb=1 / open_gop=0 / weightp=2 / keyint=240 / keyint_min=24 / scenecut=40 / intra_refresh=0 / rc_lookahead=60 / rc=crf / mbtree=1 / crf=20.0 / qcomp=0.60 / qpmin=0 / qpmax=69 / qpstep=4 / vbv_maxrate=62500 / vbv_bufsize=78125 / crf_max=0.0 / nal_hrd=none / filler=0 / ip_ratio=1.40 / aq=1:1.00
    Language                                 : English
    Default                                  : Yes
    Forced                                   : No
    Color range                              : Limited
    Color primaries                          : BT.709
    Transfer characteristics                 : BT.709
    Matrix coefficients                      : BT.709
    Statistics Tags Issue                    : mkvmerge v15.0.0 ('Duel with the Devil') 64-bit 2017-11-23 06:32:46 / mkvmerge v15.0.0 ('Duel with the Devil') 64-bit 2017-11-23 06:32:46 / UTC 2017-11-14T00:05:22Z
    FromStats_BitRate                        : 4146462
    FromStats_Duration                       : 01:43:03.344000000
    FromStats_FrameCount                     : 148252
    FromStats_StreamSize                     : 3204875396

    Audio #1
    ID                                       : 2
    Format                                   : AC-3
    Format/Info                              : Audio Coding 3
    Format settings, Endianness              : Big
    Codec ID                                 : A_AC3
    Duration                                 : 1 h 43 min
    Bit rate mode                            : Constant
    Bit rate                                 : 640 kb/s
    Channel(s)                               : 6 channels
    Channel positions                        : Front: L C R, Side: L R, LFE
    Sampling rate                            : 48.0 kHz
    Frame rate                               : 31.250 FPS (1536 SPF)
    Bit depth                                : 16 bits
    Compression mode                         : Lossy
    Stream size                              : 472 MiB (10%)
    Title                                    : Latino-AC3
    Language                                 : Spanish
    Service kind                             : Complete Main
    Default                                  : Yes
    Forced                                   : No
    Statistics Tags Issue                    : mkvmerge v15.0.0 ('Duel with the Devil') 64-bit 2017-11-23 06:32:46 / mkvmerge v15.0.0 ('Duel with the Devil') 64-bit 2017-11-23 06:32:46 / UTC 2017-11-14T00:05:22Z
    FromStats_BitRate                        : 640000
    FromStats_Duration                       : 01:42:33.312000000
    FromStats_FrameCount                     : 192291
    FromStats_StreamSize                     : 492264960

    Audio #2
    ID                                       : 3
    Format                                   : DTS
    Format/Info                              : Digital Theater Systems
    Mode                                     : 16
    Format settings, Endianness              : Big
    Codec ID                                 : A_DTS
    Duration                                 : 1 h 43 min
    Bit rate mode                            : Constant
    Bit rate                                 : 1 509 kb/s
    Channel(s)                               : 6 channels
    Channel positions                        : Front: L C R, Side: L R, LFE
    Sampling rate                            : 48.0 kHz
    Frame rate                               : 93.750 FPS (512 SPF)
    Bit depth                                : 24 bits
    Compression mode                         : Lossy
    Stream size                              : 1.09 GiB (24%)
    Title                                    : Ingles-DTS
    Language                                 : English
    Default                                  : No
    Forced                                   : No
    Statistics Tags Issue                    : mkvmerge v15.0.0 ('Duel with the Devil') 64-bit 2017-11-23 06:32:46 / mkvmerge v15.0.0 ('Duel with the Devil') 64-bit 2017-11-23 06:32:46 / UTC 2017-11-14T00:05:22Z
    FromStats_BitRate                        : 1508999
    FromStats_Duration                       : 01:43:03.403000000
    FromStats_FrameCount                     : 579694
    FromStats_StreamSize                     : 1166344328

    Text #1
    ID                                       : 4
    Format                                   : PGS
    Muxing mode                              : zlib
    Codec ID                                 : S_HDMV/PGS
    Codec ID/Info                            : Picture based subtitle format used on BDs/HD-DVDs
    Language                                 : Spanish
    Default                                  : No
    Forced                                   : No
    Statistics Tags Issue                    : mkvmerge v15.0.0 ('Duel with the Devil') 64-bit 2017-11-23 06:32:46 / mkvmerge v15.0.0 ('Duel with the Devil') 64-bit 2017-11-23 06:32:46 / UTC 2017-11-14T00:05:22Z
    FromStats_BitRate                        : 34858
    FromStats_Duration                       : 01:42:05.911000000
    FromStats_FrameCount                     : 2260
    FromStats_StreamSize                     : 26692615

    Text #2
    ID                                       : 5
    Format                                   : PGS
    Muxing mode                              : zlib
    Codec ID                                 : S_HDMV/PGS
    Codec ID/Info                            : Picture based subtitle format used on BDs/HD-DVDs
    Language                                 : English
    Default                                  : No
    Forced                                   : No
    Statistics Tags Issue                    : mkvmerge v15.0.0 ('Duel with the Devil') 64-bit 2017-11-23 06:32:46 / mkvmerge v15.0.0 ('Duel with the Devil') 64-bit 2017-11-23 06:32:46 / UTC 2017-11-14T00:05:22Z
    FromStats_BitRate                        : 39221
    FromStats_Duration                       : 01:42:05.911000000
    FromStats_FrameCount                     : 2502
    FromStats_StreamSize                     : 30033736

    Menu
    00:00:00.000                             : :00:00:00.000
    00:04:53.543                             : :00:04:53.543
    00:06:20.255                             : :00:06:20.255
    00:11:37.405                             : :00:11:37.405
    00:15:17.166                             : :00:15:17.166
    00:18:34.196                             : :00:18:34.196
    00:19:23.871                             : :00:19:23.871
    00:26:17.117                             : :00:26:17.117
    00:28:59.404                             : :00:28:59.404
    00:31:47.823                             : :00:31:47.822
    00:33:22.334                             : :00:33:22.333
    00:35:50.065                             : :00:35:50.064
    00:37:30.123                             : :00:37:30.123
    00:40:11.326                             : :00:40:11.325
    00:41:12.637                             : :00:41:12.637
    00:43:37.490                             : :00:43:37.490
    00:44:49.270                             : :00:44:49.270
    00:48:19.522                             : :00:48:19.521
    00:52:28.062                             : :00:52:28.061
    00:53:51.895                             : :00:53:51.895
    00:57:11.970                             : :00:57:11.970
    00:58:20.706                             : :00:58:20.705
    01:01:10.000                             : :01:01:09.999
    01:02:06.640                             : :01:02:06.639
    01:02:57.023                             : :01:02:57.023
    01:06:35.033                             : :01:06:35.032
    01:11:21.736                             : :01:11:21.735
    01:15:57.261                             : :01:15:57.261
    01:17:35.818                             : :01:17:35.817
    01:19:43.195                             : :01:19:43.195
    01:23:01.935                             : :01:23:01.935
    01:24:59.595                             : :01:24:59.594
    01:28:15.582                             : :01:28:15.582
    01:34:18.278                             : :01:34:18.277

     

  • Peso: 4.55 GiB

Sinopsis

Sabiendo que su dueño Andy, que ya no es un niño, se prepara para ir a la universidad, el vaquero Woody, el astronauta Buzz y el resto de sus amigos juguetes comienzan a preocuparse ante su incierto futuro. Efectivamente todos acaban en una guardería, donde por ejemplo la muñeca Barbie conocerá al guapo Ken. Esta reunión de nuestros amigos con otros nuevos juguetes no será sino el inicio de un montón de trepidantes y divertidas aventuras.

Ficha técnica

Video trailer de la película

Enlaces de descarga

Rip de Bluray

Descargar Toy Story 3 (2010) Full 1080p Latino




Aportes de DPeliculasHDmega la pass es:dpeliculashdmega.org Aportes de CinemaniaHD la pass es:cinemaniahdd.com

Películas relacionadas

  • Ralph El Demoledor (2012) Full 1080p Latino

    2012
    Ralph El Demoledor (2012) Full 1080p Latino

    0.0 1h 41m 2012

    Durante décadas, Ralph ha vivido a la sombra de Repara-Félix Jr., el chico bueno de su videojuego....

    Director: Rob Dressel

    Género: Animación

    Actores: Will Deters

  • Big Fish & Begonia (2018) NF 1080p Latino

    2016
    Big Fish & Begonia (2018) NF 1080p Latino

    0.0 1h 30m 2016

    En un universo más allá del nuestro, Chun celebra su decimosexto aniversario cumpliendo una tradición...

    Director: Zhang Chun

    Género: Animación

    Actores: Zhang Jie

  • V/H/S: (2014) Full 1080p Subtitulado

    2014
    V/H/S: (2014) Full 1080p Subtitulado

    4.2 1 h 21 min 2014

    Un camión está causando el caos en la calle, atropellando a todo aquel que se cruza en su camino. Mientras...

    Director: Todd Lincoln

    Género: FULL 1080p Plateadas

    Actores: Nick Blanco

Comentarios 0