Tierra de audaces (1939) Full 1080p Latino

879 vistas
1 estrella2 estrellas3 estrellas4 estrellas5 estrellas (3 votos, promedio: 3,67 de 5)
Cargando…

Información de Tierra de audaces (1939) Full 1080p Latino

Datos de la película

  • Calidad: Full 1080p
  • Audio: Español Latino AC3 1.0 BLURAY - Ingles DTS 5.1 BLURAY
  • Subtitulos: Español Latino PGS - Ingles PGS
  • Resolución: 1920x1080p
  • Formato: MKV
  • Codec: H.264
  • Encoder: Dracarys
  • Mediainfo: Clic para Mostrar Datos Ver
  • Format                                   : Matroska
    Format version                           : Version 4 / Version 2
    File size                                : 5.73 GiB
    Duration                                 : 1 h 46 min
    Overall bit rate                         : 7 716 kb/s
    Movie name                               : CinemaniaHDD.net
    Encoded date                             : UTC 2018-05-29 18:32:01 / UTC 2018-05-25T13:02:19Z
    Writing application                      : mkvmerge v15.0.0 ('Duel with the Devil') 64-bit
    Writing library                          : libebml v1.3.5 + libmatroska v1.4.5 / Lavf57.7.2

    Video
    ID                                       : 1
    Format                                   : AVC
    Format/Info                              : Advanced Video Codec
    Format profile                           : High@L4.1
    Format settings                          : CABAC / 4 Ref Frames
    Format settings, CABAC                   : Yes
    Format settings, RefFrames               : 4 frames
    Codec ID                                 : V_MPEG4/ISO/AVC
    Duration                                 : 1 h 46 min
    Bit rate                                 : 5 862 kb/s
    Width                                    : 1 920 pixels
    Height                                   : 1 080 pixels
    Display aspect ratio                     : 16:9
    Frame rate mode                          : Constant
    Frame rate                               : 23.976 (24000/1001) FPS
    Color space                              : YUV
    Chroma subsampling                       : 4:2:0
    Bit depth                                : 8 bits
    Scan type                                : Progressive
    Bits/(Pixel*Frame)                       : 0.118
    Stream size                              : 4.35 GiB (76%)
    Title                                    : Tierra de audaces (1939) Full 1080p Latini
    Writing library                          : x264 core 148 r2708 86b7198
    Encoding settings                        : cabac=1 / ref=4 / deblock=1:0:0 / analyse=0x3:0x133 / me=esa / subme=9 / psy=1 / psy_rd=1.00:0.00 / mixed_ref=1 / me_range=16 / chroma_me=1 / trellis=2 / 8x8dct=1 / cqm=0 / deadzone=21,11 / fast_pskip=1 / chroma_qp_offset=-2 / threads=34 / lookahead_threads=2 / sliced_threads=0 / nr=0 / decimate=1 / interlaced=0 / bluray_compat=0 / constrained_intra=0 / bframes=3 / b_pyramid=2 / b_adapt=2 / b_bias=0 / direct=3 / weightb=1 / open_gop=0 / weightp=2 / keyint=240 / keyint_min=24 / scenecut=40 / intra_refresh=0 / rc_lookahead=60 / rc=crf / mbtree=1 / crf=20.0 / qcomp=0.60 / qpmin=0 / qpmax=69 / qpstep=4 / vbv_maxrate=62500 / vbv_bufsize=78125 / crf_max=0.0 / nal_hrd=none / filler=0 / ip_ratio=1.40 / aq=1:1.00
    Language                                 : English
    Default                                  : Yes
    Forced                                   : No
    Color range                              : Limited
    Color primaries                          : BT.709
    Transfer characteristics                 : BT.709
    Matrix coefficients                      : BT.709
    Statistics Tags Issue                    : mkvmerge v15.0.0 ('Duel with the Devil') 64-bit 2018-05-29 18:32:01 / mkvmerge v15.0.0 ('Duel with the Devil') 64-bit 2018-05-29 18:32:01 / UTC 2018-05-25T13:02:19Z
    FromStats_BitRate                        : 5990449
    FromStats_Duration                       : 01:46:14.785000000
    FromStats_FrameCount                     : 152842
    FromStats_StreamSize                     : 4773478466

    Audio #1
    ID                                       : 2
    Format                                   : AC-3
    Format/Info                              : Audio Coding 3
    Format settings, Endianness              : Big
    Codec ID                                 : A_AC3
    Duration                                 : 1 h 46 min
    Bit rate mode                            : Constant
    Bit rate                                 : 192 kb/s
    Channel(s)                               : 1 channel
    Channel positions                        : Front: C
    Sampling rate                            : 48.0 kHz
    Frame rate                               : 31.250 FPS (1536 SPF)
    Bit depth                                : 16 bits
    Compression mode                         : Lossy
    Stream size                              : 146 MiB (2%)
    Language                                 : Spanish
    Service kind                             : Complete Main
    Default                                  : Yes
    Forced                                   : No
    Statistics Tags Issue                    : mkvmerge v15.0.0 ('Duel with the Devil') 64-bit 2018-05-29 18:32:01 / mkvmerge v15.0.0 ('Duel with the Devil') 64-bit 2018-05-29 18:32:01 / UTC 2018-05-25T13:02:19Z
    FromStats_BitRate                        : 192000
    FromStats_Duration                       : 01:46:14.848000000
    FromStats_FrameCount                     : 199214
    FromStats_StreamSize                     : 152996352

    Audio #2
    ID                                       : 3
    Format                                   : DTS
    Format/Info                              : Digital Theater Systems
    Mode                                     : 16
    Format settings, Endianness              : Big
    Codec ID                                 : A_DTS
    Duration                                 : 1 h 46 min
    Bit rate mode                            : Constant
    Bit rate                                 : 1 509 kb/s
    Channel(s)                               : 6 channels
    Channel positions                        : Front: L C R, Side: L R, LFE
    Sampling rate                            : 48.0 kHz
    Frame rate                               : 93.750 FPS (512 SPF)
    Bit depth                                : 24 bits
    Compression mode                         : Lossy
    Stream size                              : 1.12 GiB (20%)
    Language                                 : English
    Default                                  : No
    Forced                                   : No
    Statistics Tags Issue                    : mkvmerge v15.0.0 ('Duel with the Devil') 64-bit 2018-05-29 18:32:01 / mkvmerge v15.0.0 ('Duel with the Devil') 64-bit 2018-05-29 18:32:01 / UTC 2018-05-25T13:02:19Z
    FromStats_BitRate                        : 1508999
    FromStats_Duration                       : 01:46:14.827000000
    FromStats_FrameCount                     : 597640
    FromStats_StreamSize                     : 1202451680

    Text #1
    ID                                       : 4
    Format                                   : PGS
    Muxing mode                              : zlib
    Codec ID                                 : S_HDMV/PGS
    Codec ID/Info                            : Picture based subtitle format used on BDs/HD-DVDs
    Language                                 : English
    Default                                  : No
    Forced                                   : No
    Statistics Tags Issue                    : mkvmerge v15.0.0 ('Duel with the Devil') 64-bit 2018-05-29 18:32:01 / mkvmerge v15.0.0 ('Duel with the Devil') 64-bit 2018-05-29 18:32:01 / UTC 2018-05-25T13:02:19Z
    FromStats_BitRate                        : 41576
    FromStats_Duration                       : 01:43:43.384000000
    FromStats_FrameCount                     : 2766
    FromStats_StreamSize                     : 32343405

    Text #2
    ID                                       : 5
    Format                                   : PGS
    Muxing mode                              : zlib
    Codec ID                                 : S_HDMV/PGS
    Codec ID/Info                            : Picture based subtitle format used on BDs/HD-DVDs
    Language                                 : Spanish
    Default                                  : No
    Forced                                   : No
    Statistics Tags Issue                    : mkvmerge v15.0.0 ('Duel with the Devil') 64-bit 2018-05-29 18:32:01 / mkvmerge v15.0.0 ('Duel with the Devil') 64-bit 2018-05-29 18:32:01 / UTC 2018-05-25T13:02:19Z
    FromStats_BitRate                        : 35583
    FromStats_Duration                       : 01:45:07.843000000
    FromStats_FrameCount                     : 2600
    FromStats_StreamSize                     : 28056681

    Menu
    00:00:00.000                             : :Chapter 1
    00:01:41.518                             : :Chapter 2
    00:09:08.715                             : :Chapter 3
    00:12:55.942                             : :Chapter 4
    00:15:04.278                             : :Chapter 5
    00:18:19.473                             : :Chapter 6
    00:24:00.981                             : :Chapter 7
    00:30:50.015                             : :Chapter 8
    00:34:27.607                             : :Chapter 9
    00:36:45.203                             : :Chapter 10
    00:40:47.612                             : :Chapter 11
    00:43:22.725                             : :Chapter 12
    00:46:51.726                             : :Chapter 13
    00:49:43.355                             : :Chapter 14
    00:54:33.937                             : :Chapter 15
    00:57:34.701                             : :Chapter 16
    01:00:13.360                             : :Chapter 17
    01:04:19.939                             : :Chapter 18
    01:09:30.583                             : :Chapter 19
    01:14:18.955                             : :Chapter 20
    01:21:22.127                             : :Chapter 21
    01:29:12.973                             : :Chapter 22
    01:35:51.579                             : :Chapter 23
    01:44:00.025                             : :Chapter 24

  • Peso: 5.73 GiB

Sinopsis

En 1867 empieza la construcción del ferrocarril en el estado de Missouri. Los agentes de la compañía constructora presionan con amenazas y engaños a los propietarios de las tierras por donde pasará el tren para que las vendan a precios irrisorios. Sin embargo, estas presiones se estrellan contra la resistencia de una mujer que vive con sus dos hijos, Jesse y Frank James… La mejor adaptación cinematográfica de la vida del legendario bandido Jesse James y su banda.

Ficha técnica

Video trailer de la película

Enlaces de descarga

Rip de Bluray

Descargar Tierra de audaces (1939) Full 1080p Latino




Aportes de DPeliculasHDmega la pass es:dpeliculashdmega.org Aportes de CinemaniaHD la pass es:cinemaniahdd.com

Películas relacionadas

Comentarios 0