The Stool Pigeon (2010) 1080p Latino

679 vistas
1 estrella2 estrellas3 estrellas4 estrellas5 estrellas (Ninguna valoración todavía)
Cargando…

Información de The Stool Pigeon (2010) 1080p Latino

Datos de la película

  • Calidad: 1080p
  • Audio: Español Latino AC3 2.0 DVD - Chino AC3 5.1 BLURAY
  • Subtitulos: Español Latino SRT
  • Resolución: 1920X816p
  • Formato: MKV
  • Codec: H.264
  • Encoder: Dracarys
  • Mediainfo: Clic para Mostrar Datos Ver
  • Format                                   : Matroska
    Format version                           : Version 4 / Version 2
    File size                                : 3.39 GiB
    Duration                                 : 1 h 52 min
    Overall bit rate                         : 4 327 kb/s
    Movie name                               : CinemaniaHDD.com
    Encoded date                             : UTC 2018-01-26 02:25:21 / UTC 2018-01-26T01:11:11Z
    Writing application                      : mkvmerge v15.0.0 ('Duel with the Devil') 64-bit
    Writing library                          : libebml v1.3.5 + libmatroska v1.4.5 / Lavf57.7.2

    Video
    ID                                       : 1
    Format                                   : AVC
    Format/Info                              : Advanced Video Codec
    Format profile                           : High@L4.1
    Format settings                          : CABAC / 5 Ref Frames
    Format settings, CABAC                   : Yes
    Format settings, RefFrames               : 5 frames
    Codec ID                                 : V_MPEG4/ISO/AVC
    Duration                                 : 1 h 52 min
    Bit rate                                 : 3 500 kb/s
    Width                                    : 1 920 pixels
    Height                                   : 816 pixels
    Display aspect ratio                     : 2.35:1
    Frame rate mode                          : Constant
    Frame rate                               : 24.000 FPS
    Color space                              : YUV
    Chroma subsampling                       : 4:2:0
    Bit depth                                : 8 bits
    Scan type                                : Progressive
    Bits/(Pixel*Frame)                       : 0.093
    Stream size                              : 2.67 GiB (79%)
    Title                                    : The Stool Pigeon (2010) 1080p Latino
    Writing library                          : x264 core 148 r2708 86b7198
    Encoding settings                        : cabac=1 / ref=5 / deblock=1:0:0 / analyse=0x3:0x113 / me=umh / subme=8 / psy=1 / psy_rd=1.00:0.00 / mixed_ref=1 / me_range=16 / chroma_me=1 / trellis=1 / 8x8dct=1 / cqm=0 / deadzone=21,11 / fast_pskip=1 / chroma_qp_offset=-2 / threads=25 / lookahead_threads=4 / sliced_threads=0 / nr=0 / decimate=1 / interlaced=0 / bluray_compat=0 / constrained_intra=0 / bframes=3 / b_pyramid=2 / b_adapt=2 / b_bias=0 / direct=3 / weightb=1 / open_gop=0 / weightp=2 / keyint=240 / keyint_min=24 / scenecut=40 / intra_refresh=0 / rc_lookahead=50 / rc=abr / mbtree=1 / bitrate=3500 / ratetol=1.0 / qcomp=0.60 / qpmin=0 / qpmax=69 / qpstep=4 / vbv_maxrate=62500 / vbv_bufsize=78125 / nal_hrd=none / filler=0 / ip_ratio=1.40 / aq=1:1.00
    Language                                 : English
    Default                                  : Yes
    Forced                                   : No
    Color range                              : Limited
    Color primaries                          : BT.709
    Transfer characteristics                 : BT.709
    Matrix coefficients                      : BT.709
    Statistics Tags Issue                    : mkvmerge v15.0.0 ('Duel with the Devil') 64-bit 2018-01-26 02:25:21 / mkvmerge v15.0.0 ('Duel with the Devil') 64-bit 2018-01-26 02:25:21 / UTC 2018-01-26T01:11:11Z
    FromStats_BitRate                        : 3492827
    FromStats_Duration                       : 01:52:08.500000000
    FromStats_FrameCount                     : 161484
    FromStats_StreamSize                     : 2937686636

    Audio #1
    ID                                       : 2
    Format                                   : AC-3
    Format/Info                              : Audio Coding 3
    Format settings, Endianness              : Big
    Codec ID                                 : A_AC3
    Duration                                 : 1 h 52 min
    Bit rate mode                            : Constant
    Bit rate                                 : 192 kb/s
    Channel(s)                               : 2 channels
    Channel positions                        : Front: L R
    Sampling rate                            : 48.0 kHz
    Frame rate                               : 31.250 FPS (1536 SPF)
    Bit depth                                : 16 bits
    Compression mode                         : Lossy
    Stream size                              : 154 MiB (4%)
    Language                                 : Spanish
    Service kind                             : Complete Main
    Default                                  : Yes
    Forced                                   : No
    Statistics Tags Issue                    : mkvmerge v15.0.0 ('Duel with the Devil') 64-bit 2018-01-26 02:25:21 / mkvmerge v15.0.0 ('Duel with the Devil') 64-bit 2018-01-26 02:25:21 / UTC 2018-01-26T01:11:11Z
    FromStats_BitRate                        : 192000
    FromStats_Duration                       : 01:52:08.288000000
    FromStats_FrameCount                     : 210259
    FromStats_StreamSize                     : 161478912

    Audio #2
    ID                                       : 3
    Format                                   : AC-3
    Format/Info                              : Audio Coding 3
    Format settings, Endianness              : Big
    Codec ID                                 : A_AC3
    Duration                                 : 1 h 52 min
    Bit rate mode                            : Constant
    Bit rate                                 : 640 kb/s
    Channel(s)                               : 6 channels
    Channel positions                        : Front: L C R, Side: L R, LFE
    Sampling rate                            : 48.0 kHz
    Frame rate                               : 31.250 FPS (1536 SPF)
    Bit depth                                : 16 bits
    Compression mode                         : Lossy
    Stream size                              : 513 MiB (15%)
    Language                                 : Chinese
    Service kind                             : Complete Main
    Default                                  : No
    Forced                                   : No
    Statistics Tags Issue                    : mkvmerge v15.0.0 ('Duel with the Devil') 64-bit 2018-01-26 02:25:21 / mkvmerge v15.0.0 ('Duel with the Devil') 64-bit 2018-01-26 02:25:21 / UTC 2018-01-26T01:11:11Z
    FromStats_BitRate                        : 640000
    FromStats_Duration                       : 01:52:08.512000000
    FromStats_FrameCount                     : 210266
    FromStats_StreamSize                     : 538280960

    Text
    ID                                       : 4
    Format                                   : UTF-8
    Codec ID                                 : S_TEXT/UTF8
    Codec ID/Info                            : UTF-8 Plain Text
    Language                                 : Spanish
    Default                                  : Yes
    Forced                                   : No
    Statistics Tags Issue                    : mkvmerge v15.0.0 ('Duel with the Devil') 64-bit 2018-01-26 02:25:21 / mkvmerge v15.0.0 ('Duel with the Devil') 64-bit 2018-01-26 02:25:21 / UTC 2018-01-26T01:11:11Z
    FromStats_BitRate                        : 33
    FromStats_Duration                       : 01:46:16.704000000
    FromStats_FrameCount                     : 887
    FromStats_StreamSize                     : 26840

  • Peso: 3.39 GiB

Sinopsis

El detective Don Lee aconseja a sus alumnos de la Academia de Policía que no se involucren emocionalmente con los chivatos que utilizan para capturar a los criminales de alto rango: no es para menos, ya que Lee condujo a la desgracia al suyo propio años atrás y nunca se lo ha perdonado. No es el único trauma que Lee tiene respecto a su pasado, puesto que a su vez mantiene una pesada carga de conciencia sobre su matrimonio. Su obsesión actual es su trabajo, actualmente centrado en la misión de atrapar al traficante de armas conocido como Barbarian, pero para conseguirlo deberá de nuevo trabajar con un chivato infiltrado. El elegido es el ladrón de coches conocido como Fantasma Jr., al cual inicialmente le repugna la idea de trabajar para el cuerpo policial, pero se verá obligado a ello si quiere salvar a su hermana del mundo de la prostitución. Una vez dentro, Fantasma se verá cada vez más cercano a Dee, la novia de Barbarian…

Ficha técnica

  • Titulo original: 綫人
  • Fecha de lanzamiento: 26-08-2010 (Hong Kong)
  • Director: Dante Lam
  • Género: Acción, Drama, Suspense
  • Puntuación: 0.0 0 votos
  • Duración:
    1 h 52 min

Video trailer de la película

Enlaces de descarga

Rip de Bluray

Descargar The Stool Pigeon (2010) 1080p Latino




Aportes de DPeliculasHDmega la pass es:dpeliculashdmega.org Aportes de CinemaniaHD la pass es:cinemaniahdd.com
Guardado en : Acción , Drama , Suspense

Películas relacionadas

  • The Night Comes For Us (2018) NF 1080p Latino

    2018
    The Night Comes For Us (2018) NF 1080p Latino

    1.0 2h 1m 2018

    The Night Comes For Us (2018) NF 1080p Latino; Mega, Google Drive. Un antiguo sicario debe proteger a...

    Director: Timo Tjahjanto

    Género: Acción

    Actores: Zack Lee

  • Illang: La brigada del lobo (2018) NF 1080p Latino

    2018
    Illang: La brigada del lobo (2018) NF 1080p Latino

    1.0 2h 19m 2018

    Descargar Illang: La brigada del lobo (2018) NF 1080p Latino; Mega, Google Drive. Basada en el anime...

    Director: Kim Jee-woon

    Género: Acción

    Actores: Shin Eun-soo

  • The Padre (2018) WEB-DL 1080p Latino

    2018
    The Padre (2018) WEB-DL 1080p Latino

    3.0 1h 38m 2018

    Descargar The Padre (2018) WEB-DL 1080p Latino; Mega, Google Drive. El juez estadounidense retirado Randall...

    Director: Jonathan Sobol

    Género: Drama

    Actores: Tim Roth

  • Mentes poderosas (2018) 1080p Latino

    2018
    Mentes poderosas (2018) 1080p Latino

    1.0 1h 45m 2018

    Descargar Mentes poderosas (2018) 1080p Latino; Mega, Google Drive. Encarcelados en un mundo adulto...

    Director: Jennifer Yuh Nelson

    Género: Ciencia ficción

    Actores: William Walker

Comentarios 0