The Purge (2018) Primera Temporada [AMZN] WEB-DL 1080p Subtitulado

2.220 vistas
1 estrella2 estrellas3 estrellas4 estrellas5 estrellas (2 votos, promedio: 5,00 de 5)
Cargando…

Información de The Purge (2018) Primera Temporada [AMZN] WEB-DL 1080p Subtitulado

Datos de la película

  • Calidad: WEBDL
  • Audio: Se especifica abajo de la Sinopsis
  • Subtitulos: Español Latino SRT
  • Resolución: 1920x1080p
  • Formato: MKV
  • Codec: H.264
  • Encoder: KiNGS
  • Mediainfo: Clic para Mostrar Datos Ver
  • Format                                   : Matroska
    Format version                           : Version 4 / Version 2
    File size                                : 2.58 GiB
    Duration                                 : 50 min 53 s
    Overall bit rate mode                    : Variable
    Overall bit rate                         : 7 253 kb/s
    Movie name                               : CinemaniaHDD.net
    Encoded date                             : UTC 2018-09-12 04:55:01
    Writing application                      : mkvmerge v15.0.0 ('Duel with the Devil') 64-bit
    Writing library                          : libebml v1.3.5 + libmatroska v1.4.5

    Video
    ID                                       : 1
    Format                                   : AVC
    Format/Info                              : Advanced Video Codec
    Format profile                           : High@L4
    Format settings                          : CABAC / 4 Ref Frames
    Format settings, CABAC                   : Yes
    Format settings, RefFrames               : 4 frames
    Codec ID                                 : V_MPEG4/ISO/AVC
    Duration                                 : 50 min 53 s
    Bit rate mode                            : Variable
    Bit rate                                 : 6 611 kb/s
    Maximum bit rate                         : 15.0 Mb/s
    Width                                    : 1 920 pixels
    Height                                   : 1 080 pixels
    Display aspect ratio                     : 16:9
    Frame rate mode                          : Constant
    Frame rate                               : 23.976 (24000/1001) FPS
    Color space                              : YUV
    Chroma subsampling                       : 4:2:0
    Bit depth                                : 8 bits
    Scan type                                : Progressive
    Bits/(Pixel*Frame)                       : 0.133
    Stream size                              : 2.35 GiB (91%)
    Title                                    : The Purge (2018) S01E01 [What is America] [AMZN] WEB-DL 1080p Subtitulado
    Language                                 : English
    Default                                  : Yes
    Forced                                   : No
    Color range                              : Limited
    Color primaries                          : BT.709
    Transfer characteristics                 : BT.709
    Matrix coefficients                      : BT.709

    Audio
    ID                                       : 2
    Format                                   : E-AC-3
    Format/Info                              : Enhanced Audio Coding 3
    Format settings, Endianness              : Big
    Codec ID                                 : A_EAC3
    Duration                                 : 50 min 53 s
    Bit rate mode                            : Constant
    Bit rate                                 : 640 kb/s
    Channel(s)                               : 6 channels
    Channel positions                        : Front: L C R, Side: L R, LFE
    Sampling rate                            : 48.0 kHz
    Frame rate                               : 187.500 FPS (256 SPF)
    Compression mode                         : Lossy
    Stream size                              : 233 MiB (9%)
    Language                                 : English
    Service kind                             : Complete Main
    Default                                  : Yes
    Forced                                   : No

    Text #1
    ID                                       : 3
    Format                                   : UTF-8
    Codec ID                                 : S_TEXT/UTF8
    Codec ID/Info                            : UTF-8 Plain Text
    Duration                                 : 50 min 25 s
    Bit rate                                 : 60 b/s
    Count of elements                        : 744
    Stream size                              : 22.5 KiB (0%)
    Language                                 : English
    Default                                  : No
    Forced                                   : No

    Text #2
    ID                                       : 4
    Format                                   : UTF-8
    Codec ID                                 : S_TEXT/UTF8
    Codec ID/Info                            : UTF-8 Plain Text
    Duration                                 : 50 min 23 s
    Bit rate                                 : 68 b/s
    Count of elements                        : 689
    Stream size                              : 25.4 KiB (0%)
    Language                                 : Spanish
    Default                                  : Yes
    Forced                                   : Yes

  • Peso: 2.58 GiB X Capitulo - 2 Capitulos Disponibles

Sinopsis

Ambientada en una América distópica gobernada por un partido político totalitario, la serie sigue a varios personajes aparentemente sin relación que viven en una ciudad pequeña. Atarlos a todos juntos es un salvador misterioso que está impecablemente equipado para todo lo que la noche les arroja. A medida que el reloj se detiene con sus destinos pendientes, cada personaje se ve obligado a contar sus pasados ​​a medida que descubren qué tan lejos llegarán para sobrevivir a la noche.

 

Ingles: AMAZON E-AC3 5.1

CADA MIÉRCOLES NUEVO CAPITULO

Ficha técnica

  • Titulo original: The Purge
  • Fecha de lanzamiento: 04-09-2018 (US)
  • Director: James DeMonaco
  • Género: Drama, Series
  • Puntuación: 5.0 2 votos
  • Duración:
    0h 45m

Video trailer de la película

Enlaces de descarga

Rip de Bluray

Descargar The Purge (2018) Primera Temporada [AMZN] WEB-DL 1080p Subtitulado




Aportes de DPeliculasHDmega la pass es:dpeliculashdmega.org Aportes de CinemaniaHD la pass es:cinemaniahdd.com
Guardado en : Drama , Series

Películas relacionadas

Comentarios 0