The Flash (2016) Temporada 3 Full 1080p Latino

1.316 vistas
1 estrella2 estrellas3 estrellas4 estrellas5 estrellas (2 votos, promedio: 3,00 de 5)
Cargando…

Información de The Flash (2016) Temporada 3 Full 1080p Latino

Datos de la película

  • Calidad: Full 1080p
  • Audio: Español Latino AC3 2.0 Netflix - Ingles DTS 5.1 BURAY
  • Subtitulos: Español Latino PGS - Ingles PGS
  • Resolución: 1920X1080p
  • Formato: MKV
  • Codec: H.264
  • Encoder: CinemaniaHD
  • Mediainfo: Clic para Mostrar Datos Ver
  • Format                                   : Matroska
    Format version                           : Version 4 / Version 2
    File size                                : 2.17 GiB
    Duration                                 : 42 min 30 s
    Overall bit rate                         : 7 301 kb/s
    Movie name                               : CinemaniaHDD.COM
    Encoded date                             : UTC 2018-01-21 22:11:01 / UTC 2018-01-09T05:38:29Z
    Writing application                      : mkvmerge v17.0.0 ('Be Ur Friend') 64-bit
    Writing library                          : libebml v1.3.5 + libmatroska v1.4.8 / Lavf57.7.2

    Video
    ID                                       : 1
    Format                                   : AVC
    Format/Info                              : Advanced Video Codec
    Format profile                           : High@L4.1
    Format settings                          : CABAC / 4 Ref Frames
    Format settings, CABAC                   : Yes
    Format settings, RefFrames               : 4 frames
    Codec ID                                 : V_MPEG4/ISO/AVC
    Duration                                 : 42 min 30 s
    Bit rate                                 : 5 455 kb/s
    Width                                    : 1 920 pixels
    Height                                   : 1 080 pixels
    Display aspect ratio                     : 16:9
    Frame rate mode                          : Constant
    Frame rate                               : 23.976 (24000/1001) FPS
    Color space                              : YUV
    Chroma subsampling                       : 4:2:0
    Bit depth                                : 8 bits
    Scan type                                : Progressive
    Bits/(Pixel*Frame)                       : 0.110
    Stream size                              : 1.62 GiB (75%)
    Writing library                          : x264 core 148 r2708 86b7198
    Encoding settings                        : cabac=1 / ref=4 / deblock=1:0:0 / analyse=0x3:0x133 / me=esa / subme=10 / psy=1 / psy_rd=1.00:0.00 / mixed_ref=1 / me_range=24 / chroma_me=1 / trellis=2 / 8x8dct=1 / cqm=0 / deadzone=21,11 / fast_pskip=1 / chroma_qp_offset=-2 / threads=34 / lookahead_threads=5 / sliced_threads=0 / nr=0 / decimate=1 / interlaced=0 / bluray_compat=0 / constrained_intra=0 / bframes=8 / b_pyramid=2 / b_adapt=2 / b_bias=0 / direct=3 / weightb=1 / open_gop=0 / weightp=2 / keyint=240 / keyint_min=24 / scenecut=40 / intra_refresh=0 / rc_lookahead=60 / rc=crf / mbtree=1 / crf=20.0 / qcomp=0.60 / qpmin=0 / qpmax=69 / qpstep=4 / vbv_maxrate=62500 / vbv_bufsize=78125 / crf_max=0.0 / nal_hrd=none / filler=0 / ip_ratio=1.40 / aq=1:1.00
    Default                                  : Yes
    Forced                                   : No
    Color range                              : Limited
    Color primaries                          : BT.709
    Transfer characteristics                 : BT.709
    Matrix coefficients                      : BT.709
    Statistics Tags Issue                    : mkvmerge v17.0.0 ('Be Ur Friend') 64-bit 2018-01-21 22:11:01 / mkvmerge v17.0.0 ('Be Ur Friend') 64-bit 2018-01-21 22:11:01 / UTC 2018-01-09T05:38:29Z
    FromStats_BitRate                        : 5560973
    FromStats_Duration                       : 00:42:29.255000000
    FromStats_FrameCount                     : 61121
    FromStats_StreamSize                     : 1772042418

    Audio #1
    ID                                       : 2
    Format                                   : AC-3
    Format/Info                              : Audio Coding 3
    Format settings, Endianness              : Big
    Codec ID                                 : A_AC3
    Duration                                 : 42 min 30 s
    Bit rate mode                            : Constant
    Bit rate                                 : 192 kb/s
    Channel(s)                               : 2 channels
    Channel positions                        : Front: L R
    Sampling rate                            : 48.0 kHz
    Frame rate                               : 31.250 FPS (1536 SPF)
    Bit depth                                : 16 bits
    Compression mode                         : Lossy
    Stream size                              : 58.4 MiB (3%)
    Language                                 : Spanish
    Service kind                             : Complete Main
    Default                                  : Yes
    Forced                                   : No
    Statistics Tags Issue                    : mkvmerge v17.0.0 ('Be Ur Friend') 64-bit 2018-01-21 22:11:01 / mkvmerge v17.0.0 ('Be Ur Friend') 64-bit 2018-01-21 22:11:01 / UTC 2018-01-09T05:38:29Z
    FromStats_BitRate                        : 192000
    FromStats_Duration                       : 00:42:30.336000000
    FromStats_FrameCount                     : 79698
    FromStats_StreamSize                     : 61208064

    Audio #2
    ID                                       : 3
    Format                                   : DTS
    Format/Info                              : Digital Theater Systems
    Mode                                     : 16
    Format settings, Endianness              : Big
    Codec ID                                 : A_DTS
    Duration                                 : 42 min 30 s
    Bit rate mode                            : Constant
    Bit rate                                 : 1 509 kb/s
    Channel(s)                               : 6 channels
    Channel positions                        : Front: L C R, Side: L R, LFE
    Sampling rate                            : 48.0 kHz
    Frame rate                               : 93.750 FPS (512 SPF)
    Bit depth                                : 16 bits
    Compression mode                         : Lossy
    Stream size                              : 459 MiB (21%)
    Title                                    : Surround
    Language                                 : English
    Default                                  : No
    Forced                                   : No
    Statistics Tags Issue                    : mkvmerge v17.0.0 ('Be Ur Friend') 64-bit 2018-01-21 22:11:01 / mkvmerge v17.0.0 ('Be Ur Friend') 64-bit 2018-01-21 22:11:01 / UTC 2018-01-09T05:38:29Z
    FromStats_BitRate                        : 1508999
    FromStats_Duration                       : 00:42:29.291000000
    FromStats_FrameCount                     : 238996
    FromStats_StreamSize                     : 480859952

    Text #1
    ID                                       : 4
    Format                                   : PGS
    Muxing mode                              : zlib
    Codec ID                                 : S_HDMV/PGS
    Codec ID/Info                            : Picture based subtitle format used on BDs/HD-DVDs
    Language                                 : Spanish
    Default                                  : No
    Forced                                   : No
    Statistics Tags Issue                    : mkvmerge v17.0.0 ('Be Ur Friend') 64-bit 2018-01-21 22:11:01 / mkvmerge v17.0.0 ('Be Ur Friend') 64-bit 2018-01-21 22:11:01 / UTC 2018-01-09T05:38:29Z
    FromStats_BitRate                        : 43985
    FromStats_Duration                       : 00:42:24.918000000
    FromStats_FrameCount                     : 1368
    FromStats_StreamSize                     : 13992338

    Text #2
    ID                                       : 5
    Format                                   : PGS
    Muxing mode                              : zlib
    Codec ID                                 : S_HDMV/PGS
    Codec ID/Info                            : Picture based subtitle format used on BDs/HD-DVDs
    Language                                 : Spanish
    Default                                  : No
    Forced                                   : No
    Statistics Tags Issue                    : mkvmerge v17.0.0 ('Be Ur Friend') 64-bit 2018-01-21 22:11:01 / mkvmerge v17.0.0 ('Be Ur Friend') 64-bit 2018-01-21 22:11:01 / UTC 2018-01-09T05:38:29Z
    FromStats_BitRate                        : 40435
    FromStats_Duration                       : 00:42:24.918000000
    FromStats_FrameCount                     : 1273
    FromStats_StreamSize                     : 12863165

    Text #3
    ID                                       : 6
    Format                                   : PGS
    Muxing mode                              : zlib
    Codec ID                                 : S_HDMV/PGS
    Codec ID/Info                            : Picture based subtitle format used on BDs/HD-DVDs
    Language                                 : Spanish
    Default                                  : No
    Forced                                   : No
    Statistics Tags Issue                    : mkvmerge v17.0.0 ('Be Ur Friend') 64-bit 2018-01-21 22:11:01 / mkvmerge v17.0.0 ('Be Ur Friend') 64-bit 2018-01-21 22:11:01 / UTC 2018-01-09T05:38:29Z
    FromStats_BitRate                        : 395
    FromStats_Duration                       : 00:41:25.483000000
    FromStats_FrameCount                     : 16
    FromStats_StreamSize                     : 122872

    Text #4
    ID                                       : 7
    Format                                   : PGS
    Muxing mode                              : zlib
    Codec ID                                 : S_HDMV/PGS
    Codec ID/Info                            : Picture based subtitle format used on BDs/HD-DVDs
    Language                                 : English
    Default                                  : No
    Forced                                   : No
    Statistics Tags Issue                    : mkvmerge v17.0.0 ('Be Ur Friend') 64-bit 2018-01-21 22:11:01 / mkvmerge v17.0.0 ('Be Ur Friend') 64-bit 2018-01-21 22:11:01 / UTC 2018-01-09T05:38:29Z
    FromStats_BitRate                        : 48600
    FromStats_Duration                       : 00:42:24.918000000
    FromStats_FrameCount                     : 1405
    FromStats_StreamSize                     : 15460576

    Menu
    00:00:00.000                             : :Chapter 1
    00:01:01.186                             : :Chapter 2
    00:02:09.129                             : :Chapter 3
    00:07:35.622                             : :Chapter 4
    00:13:22.510                             : :Chapter 5
    00:21:34.877                             : :Chapter 6
    00:26:38.555                             : :Chapter 7
    00:30:18.108                             : :Chapter 8
    00:42:00.435                             : :Chapter 9

  • Peso: 2 GB C/U (50GB Total) 23 Capitulos

Sinopsis

Después de que un acelerador de partículas cause una extraña tormenta, al investigador científico de la policía, Barry Allen, le cae un rayo y entra en coma. Meses después despierta con el poder de moverse a súper velocidad permitiéndole ser el ángel de la guardia de Central City. Aunque al principio se siente entusiasmado con sus nuevos poderes, Barry descubre que no es el único “meta-humano” que se originó tras la explosión del acelerador – y no todo el mundo está usando sus nuevos poderes para el bien. Los compañeros del laboratorio STAR dedican su vida a ayudar a Barry a proteger a los inocentes. Por ahora, solo algunos amigos cercanos saben que Barry es, literalmente, el hombre más rápido del mundo, pero no pasará mucho hasta que el mundo conozca que ahora Barry Allen es … Flash.

Ficha técnica

Video trailer de la película

Enlaces de descarga

Rip de Bluray

Descargar The Flash (2016) Temporada 3 Full 1080p Latino




Aportes de DPeliculasHDmega la pass es:dpeliculashdmega.org Aportes de CinemaniaHD la pass es:cinemaniahdd.com

Películas relacionadas

  • Tully (2018) 1080p Latino

    2018
    Tully (2018) 1080p Latino

    0.0 1 h 35 min 2018

    La historia de una mujer con tres hijos que, incapaz de lidiar con su bebé recién nacido, contrata...

    Director: Jason Reitman

    Género: Comedia

    Actores: Stormy Ent

  • Si solo pudiera imaginar (2018) Full 1080p Latino

    2018
    Si solo pudiera imaginar (2018) Full 1080p Latino

    4.8 1 h 50 min 2018

    La historia real de la aclamada canción "I Can Only Imagine", la canción cristiana contemporánea más...

    Director: Jon Erwin

    Género: Drama

    Actores: Trace Adkins

  • El Justiciero (2014) Full 1080p Latino

    2014
    El Justiciero (2014) Full 1080p Latino

    4.3 2 h 12 min 2014

    Robert McCall, un antiguo agente de la CIA que lleva ahora una vida tranquila, abandona su retiro para...

    Director: Deirdre Horgan

    Género: Acción

    Actores: Yan Dron

Comentarios 0