T2 Trainspotting (2017) 1080p Latino

2.674 vistas
1 estrella2 estrellas3 estrellas4 estrellas5 estrellas (3 votos, promedio: 5,00 de 5)
Cargando…

Información de T2 Trainspotting (2017) 1080p Latino

Datos de la película

  • Calidad: 1080p
  • Audio: Español Latino AC3 5.1 DVD - Ingles AC3 5.1 BLURAY
  • Subtitulos: Español Latino SRT - Ingles SRT
  • Resolución: 1920x1036
  • Formato: MKV
  • Codec: H.264
  • Encoder: Dpelis
  • Mediainfo: Clic para Mostrar Datos Ver
  • T2.trainspotting.2017.multi.1080p Latino.mkv
    Format                      : Matroska
    Format version              : Version 4 / Version 2
    File size                   : 3.53 GiB
    Duration                    : 1 h 57 min
    Overall bit rate            : 4 304 kb/s
    Movie name                  : DPeliculasHDMega.ORG
    Encoded date                : UTC 2017-06-20 01:11:12 / UTC 2017-06-19T22:51:01Z
    Writing application         : mkvmerge v10.0.0 ('To Drown In You') 64bit
    Writing library             : libebml v1.3.4 + libmatroska v1.4.5 / Lavf57.7.2

    Video
    ID                          : 1
    Format                      : AVC
    Format/Info                 : Advanced Video Codec
    Format profile              : High@L4.1
    Format settings, CABAC      : Yes
    Format settings, ReFrames   : 4 frames
    Codec ID                    : V_MPEG4/ISO/AVC
    Duration                    : 1 h 57 min
    Bit rate                    : 3 500 kb/s
    Width                       : 1 920 pixels
    Height                      : 1 036 pixels
    Display aspect ratio        : 1.85:1
    Frame rate mode             : Constant
    Frame rate                  : 23.976 (24000/1001) FPS
    Color space                 : YUV
    Chroma subsampling          : 4:2:0
    Bit depth                   : 8 bits
    Scan type                   : Progressive
    Bits/(Pixel*Frame)          : 0.073
    Stream size                 : 2.78 GiB (79%)
    Writing library             : x264 core 148 r2708 86b7198
    Encoding settings           : cabac=1 / ref=3 / deblock=1:0:0 / analyse=0x3:0x113 / me=hex / subme=7 / psy=1 / psy_rd=1.00:0.00 / mixed_ref=1 / me_range=16 / chroma_me=1 / trellis=1 / 8x8dct=1 / cqm=0 / deadzone=21,11 / fast_pskip=1 / chroma_qp_offset=-2 / threads=12 / lookahead_threads=2 / sliced_threads=0 / nr=0 / decimate=1 / interlaced=0 / bluray_compat=0 / constrained_intra=0 / bframes=3 / b_pyramid=2 / b_adapt=1 / b_bias=0 / direct=1 / weightb=1 / open_gop=0 / weightp=2 / keyint=240 / keyint_min=24 / scenecut=40 / intra_refresh=0 / rc_lookahead=40 / rc=abr / mbtree=1 / bitrate=3500 / ratetol=1.0 / qcomp=0.60 / qpmin=0 / qpmax=69 / qpstep=4 / vbv_maxrate=62500 / vbv_bufsize=78125 / nal_hrd=none / filler=0 / ip_ratio=1.40 / aq=1:1.00
    Default                     : Yes
    Forced                      : No
    Color range                 : Limited
    Color primaries             : BT.709
    Transfer characteristics    : BT.709
    Matrix coefficients         : BT.709
    Statistics Tags Issue       : mkvmerge v10.0.0 ('To Drown In You') 64bit 2017-06-20 01:11:12 / mkvmerge v10.0.0 ('To Drown In You') 64bit 2017-06-20 01:11:12 / UTC 2017-06-19T22:51:01Z
    FromStats_BitRate           : 3470040
    FromStats_Duration          : 01:57:21.994000000
    FromStats_FrameCount        : 168839
    FromStats_StreamSize        : 3054500463

    Audio #1
    ID                          : 2
    Format                      : AC-3
    Format/Info                 : Audio Coding 3
    Format settings, Endianness : Big
    Codec ID                    : A_AC3
    Duration                    : 1 h 57 min
    Bit rate mode               : Constant
    Bit rate                    : 448 kb/s
    Channel(s)                  : 6 channels
    Channel positions           : Front: L C R, Side: L R, LFE
    Sampling rate               : 48.0 kHz
    Frame rate                  : 31.250 FPS (1536 spf)
    Bit depth                   : 16 bits
    Compression mode            : Lossy
    Delay relative to video     : -5 ms
    Stream size                 : 376 MiB (10%)
    Language                    : Spanish
    Service kind                : Complete Main
    Default                     : Yes
    Forced                      : No
    Statistics Tags Issue       : mkvmerge v10.0.0 ('To Drown In You') 64bit 2017-06-20 01:11:12 / mkvmerge v10.0.0 ('To Drown In You') 64bit 2017-06-20 01:11:12 / UTC 2017-06-19T22:51:01Z
    FromStats_BitRate           : 448000
    FromStats_Duration          : 01:57:21.952000000
    FromStats_FrameCount        : 220061
    FromStats_StreamSize        : 394349312

    Audio #2
    ID                          : 3
    Format                      : AC-3
    Format/Info                 : Audio Coding 3
    Format settings, Endianness : Big
    Codec ID                    : A_AC3
    Duration                    : 1 h 57 min
    Bit rate mode               : Constant
    Bit rate                    : 384 kb/s
    Channel(s)                  : 6 channels
    Channel positions           : Front: L C R, Side: L R, LFE
    Sampling rate               : 48.0 kHz
    Frame rate                  : 31.250 FPS (1536 spf)
    Bit depth                   : 16 bits
    Compression mode            : Lossy
    Delay relative to video     : -5 ms
    Stream size                 : 322 MiB (9%)
    Title                       : Surround
    Language                    : English
    Service kind                : Complete Main
    Default                     : No
    Forced                      : No
    Statistics Tags Issue       : mkvmerge v10.0.0 ('To Drown In You') 64bit 2017-06-20 01:11:12 / mkvmerge v10.0.0 ('To Drown In You') 64bit 2017-06-20 01:11:12 / UTC 2017-06-19T22:51:01Z
    FromStats_BitRate           : 384000
    FromStats_Duration          : 01:57:22.016000000
    FromStats_FrameCount        : 220063
    FromStats_StreamSize        : 338016768

    Text #1
    ID                          : 4
    Format                      : UTF-8
    Codec ID                    : S_TEXT/UTF8
    Codec ID/Info               : UTF-8 Plain Text
    Language                    : Spanish
    Default                     : Yes
    Forced                      : No
    Statistics Tags Issue       : mkvmerge v10.0.0 ('To Drown In You') 64bit 2017-06-20 01:11:12 / mkvmerge v10.0.0 ('To Drown In You') 64bit 2017-06-20 01:11:12 / UTC 2017-06-19T22:51:01Z
    FromStats_BitRate           : 55
    FromStats_Duration          : 01:46:27.380000000
    FromStats_FrameCount        : 1285
    FromStats_StreamSize        : 44050

    Text #2
    ID                          : 5
    Format                      : UTF-8
    Codec ID                    : S_TEXT/UTF8
    Codec ID/Info               : UTF-8 Plain Text
    Language                    : English
    Default                     : No
    Forced                      : No
    Statistics Tags Issue       : mkvmerge v10.0.0 ('To Drown In You') 64bit 2017-06-20 01:11:12 / mkvmerge v10.0.0 ('To Drown In You') 64bit 2017-06-20 01:11:12 / UTC 2017-06-19T22:51:01Z
    FromStats_BitRate           : 57
    FromStats_Duration          : 01:45:58.638000000
    FromStats_FrameCount        : 1383
    FromStats_StreamSize        : 45669

    Menu
    00:00:00.000                : :00:00:00.000
    00:08:03.274                : :00:08:03.274
    00:14:26.574                : :00:14:26.574
    00:20:20.553                : :00:20:20.553
    00:27:35.237                : :00:27:35.237
    00:36:22.138                : :00:36:22.138
    00:44:13.192                : :00:44:13.192
    00:52:33.359                : :00:52:33.359
    00:57:29.821                : :00:57:29.821
    01:03:28.179                : :01:03:28.179
    01:09:31.793                : :01:09:31.751
    01:15:48.753                : :01:15:48.753
    01:22:57.306                : :01:22:57.306
    01:31:03.333                : :01:31:03.333
    01:37:39.979                : :01:37:39.979
    01:45:56.559                : :01:45:56.559

  • Peso: 3.53 GB

Sinopsis

Veinte años después, continúan las peripecias del grupo de ya no tan jóvenes heroinómanos de los suburbios de Edimburgo encabezados por Mark Renton (Ewan McGregor), que no tienen otra aspiración en la vida salvo drogarse y conseguir dinero sucio. Tras un bache en sus negocios y después del costoso divorcio de su mujer, Sick Boy (Jonny Lee Miller) descubre una oportunidad que puede cambiarle la vida. En Edimburgo surge un lucrativo negocio basado en vídeos porno grabados en las trastiendas de los pubs, con los clientes del local como actores principales. Tras conocer esto, Sick Boy intentará hacer una película porno de categoría capaz de venderse internacionalmente.

Inspirada en la novela Porno de Irvine Welsh, que continúa la historia del grupo de amigos de Edimburgo, Danny Boyle (Steve Jobs, 127 horas, Slumdog Millionaire) retoma la dirección de la secuela de Trainspotting (1996), y John Hodge (The Program (El ídolo), Trance) vuelve a escribir el guión. La película también contará de nuevo con los protagonistas de la película original: Ewan McGregor (La venganza de Jane, Mil maneras de morder el polvo), Jonny Lee Miller (Elementary , Sombras tenebrosas), Robert Carlyle (La leyenda de Barney Thomson, Érase una vez) y Ewen Bremner (Exodus: Dioses y reyes, Rompenieves).

Ficha técnica

  • Titulo original: T2 Trainspotting
  • Fecha de lanzamiento: 27-01-2017 (United Kingdom)
  • Director: Danny Boyle, Sylvia Parker
  • Género: Crimen, Drama
  • Puntuación: 5.0 3 votos
  • Duración:
    1h 57m

Video trailer de la película

Enlaces de descarga

Rip de Bluray

Descargar T2 Trainspotting (2017) 1080p Latino




Aportes de DPeliculasHDmega la pass es:dpeliculashdmega.org Aportes de CinemaniaHD la pass es:cinemaniahdd.com
Guardado en : Crimen , Drama

Películas relacionadas

  • Luke Cage (2018) Temporada 2 NF 1080p Latino

    2018
    Luke Cage (2018) Temporada 2 NF 1080p Latino

    1.0 0h 46m 2018

    De acuerdo a la sinopsis oficial de la segunda temporada, Luke Cage se ha convertido en un héroe reconocido...

    Director: Cheo Hodari Coker

    Género: Action & Adventure

    Actores: Theo Rossi

  • Luke Cage (2016) Temporada 1 NF 1080p Latino

    2016
    Luke Cage (2016) Temporada 1 NF 1080p Latino

    1.0 0h 46m 2016

    Como consecuencia de un experimento fallido, Luke Cage (Mike Colter) ha desarrollado una piel indestructible...

    Director: Cheo Hodari Coker

    Género: Action & Adventure

    Actores: Theo Rossi

  • Lady Bird (2017) Full 1080p Latino

    2017
    Lady Bird (2017) Full 1080p Latino

    5.0 1h 34m 2017

    Sacramento, California, año 2002. Una joven llamada Christine McPherson (Saoirse Ronan), apodada como...

    Director: Jonas Spaccarotelli

    Género: Comedia

    Actores: Tracy Letts

  • El sentido de un final (2017) 1080p Latino

    2017
    El sentido de un final (2017) 1080p Latino

    0.0 1h 48m 2017

    Tony Webster, un hombre jubilado y divorciado, mantiene una tranquila y solitaria vida. Un día descubre...

    Director: Ritesh Batra

    Género: 1080p Portada Negra

    Actores: Timothy Innes

  • Once (2007) Full 1080p Latino

    2007
    Once (2007) Full 1080p Latino

    0.0 1 h 26 min 2007

    Glen Hansard es un cantante y compositor que interpreta sus canciones por las calles de Dublín, cuando...

    Director: John Carney

    Género: Drama

    Actores: Markéta Irglová

Comentarios 5
  • Elver - 21 junio, 2017

    Extraen los subtitulos del bluray?

    • dpelis - 23 junio, 2017

      si, estimado. porq?

  • kamale - 20 junio, 2017

    gracias por las subidas por favor no camuflar los enlaces con ouio -ya que tiene malware- gracias …puedes utilizar otras alternativas http://adf.ly/

  • Pachorra - 20 junio, 2017

    saldrá la de caratula Gris ?¡?¡?¡

    • dpelis - 20 junio, 2017

      si manana, en la noche