Sword Master (2016) 1080p Latino

2.347 vistas
1 estrella2 estrellas3 estrellas4 estrellas5 estrellas (Ninguna valoración todavía)
Cargando…

Información de Sword Master (2016) 1080p Latino

Datos de la película

  • Calidad: 1080p
  • Audio: Español Latino AC3 2.0 iTunes - Chino AC3 5.1 BLURAY
  • Subtitulos: Español Latino SRT
  • Resolución: 1920x1036p
  • Formato: MKV
  • Codec: H.264
  • Encoder: Dpelis
  • Mediainfo: Clic para Mostrar Datos Ver
  • Sword Master (2016) Latino 2.0\Sword.master.2016.1080p.latino.mkv
    Format                      : Matroska
    Format version              : Version 4 / Version 2
    File size                   : 3.05 GiB
    Duration                    : 1 h 47 min
    Overall bit rate            : 4 049 kb/s
    Movie name                  : DPeliculasHDMega.ORG
    Encoded date                : UTC 2017-06-02 03:47:03
    Writing application         : mkvmerge v10.0.0 ('To Drown In You') 64bit
    Writing library             : libebml v1.3.4 + libmatroska v1.4.5

    Video
    ID                          : 1
    Format                      : AVC
    Format/Info                 : Advanced Video Codec
    Format profile              : High@L4.1
    Format settings, CABAC      : Yes
    Format settings, ReFrames   : 4 frames
    Codec ID                    : V_MPEG4/ISO/AVC
    Duration                    : 1 h 47 min
    Bit rate                    : 3 500 kb/s
    Width                       : 1 920 pixels
    Height                      : 1 036 pixels
    Display aspect ratio        : 1.85:1
    Frame rate mode             : Constant
    Frame rate                  : 24.000 FPS
    Color space                 : YUV
    Chroma subsampling          : 4:2:0
    Bit depth                   : 8 bits
    Scan type                   : Progressive
    Bits/(Pixel*Frame)          : 0.073
    Stream size                 : 2.61 GiB (86%)
    Writing library             : x264 core 148 r2708 86b7198
    Encoding settings           : cabac=1 / ref=3 / deblock=1:0:0 / analyse=0x3:0x113 / me=hex / subme=7 / psy=1 / psy_rd=1.00:0.00 / mixed_ref=1 / me_range=16 / chroma_me=1 / trellis=1 / 8x8dct=1 / cqm=0 / deadzone=21,11 / fast_pskip=1 / chroma_qp_offset=-2 / threads=32 / lookahead_threads=5 / sliced_threads=0 / nr=0 / decimate=1 / interlaced=0 / bluray_compat=0 / constrained_intra=0 / bframes=3 / b_pyramid=2 / b_adapt=1 / b_bias=0 / direct=1 / weightb=1 / open_gop=0 / weightp=2 / keyint=240 / keyint_min=24 / scenecut=40 / intra_refresh=0 / rc_lookahead=40 / rc=abr / mbtree=1 / bitrate=3500 / ratetol=1.0 / qcomp=0.60 / qpmin=0 / qpmax=69 / qpstep=4 / vbv_maxrate=62500 / vbv_bufsize=78125 / nal_hrd=none / filler=0 / ip_ratio=1.40 / aq=1:1.00
    Default                     : Yes
    Forced                      : No
    Color range                 : Limited
    Color primaries             : BT.709
    Transfer characteristics    : BT.709
    Matrix coefficients         : BT.709

    Audio #1
    ID                          : 2
    Format                      : AC-3
    Format/Info                 : Audio Coding 3
    Format settings, Endianness : Big
    Codec ID                    : A_AC3
    Duration                    : 1 h 47 min
    Bit rate mode               : Constant
    Bit rate                    : 192 kb/s
    Channel(s)                  : 2 channels
    Channel positions           : Front: L R
    Sampling rate               : 48.0 kHz
    Frame rate                  : 31.250 FPS (1536 spf)
    Bit depth                   : 16 bits
    Compression mode            : Lossy
    Delay relative to video     : 995 ms
    Stream size                 : 148 MiB (5%)
    Language                    : Spanish
    Service kind                : Complete Main
    Default                     : Yes
    Forced                      : No

    Audio #2
    ID                          : 3
    Format                      : AC-3
    Format/Info                 : Audio Coding 3
    Format settings, Endianness : Big
    Codec ID                    : A_AC3
    Duration                    : 1 h 47 min
    Bit rate mode               : Constant
    Bit rate                    : 384 kb/s
    Channel(s)                  : 6 channels
    Channel positions           : Front: L C R, Side: L R, LFE
    Sampling rate               : 48.0 kHz
    Frame rate                  : 31.250 FPS (1536 spf)
    Bit depth                   : 16 bits
    Compression mode            : Lossy
    Delay relative to video     : -5 ms
    Stream size                 : 296 MiB (9%)
    Language                    : Chinese
    Service kind                : Complete Main
    Default                     : No
    Forced                      : No

    Text
    ID                          : 4
    Format                      : UTF-8
    Codec ID                    : S_TEXT/UTF8
    Codec ID/Info               : UTF-8 Plain Text
    Duration                    : 1 h 45 min
    Bit rate                    : 38 b/s
    Count of elements           : 935
    Stream size                 : 29.9 KiB (0%)
    Default                     : Yes
    Forced                      : No

  • Peso: 3.05 GB

Sinopsis

En esta magnífica epopeya de Wuxia, un poderoso espadachín está atormentado por el impacto destructivo que sus mortales talentos tienen sobre otros. Cansado del derramamiento de sangre y la violencia del mundo de las artes marciales, se deshace a la vida humilde de un vagabundo, vagando por las franjas de la sociedad. Pero su pasado violento se niega a dejarlo ir en silencio. El espadachín maestro debe recuperar la capacidad de manejar su espada y luchar contra aquellos que interrumpen la paz que tan desesperadamente anhela.

Ficha técnica

  • Titulo original: Sword Master
  • Fecha de lanzamiento: 02-12-2016 (China)
  • Director: Derek Yee Tung-Sing
  • Género: Acción
  • Puntuación: 0.0 0 votos
  • Duración:
    1h 47m

Video trailer de la película

Enlaces de descarga

Rip de Bluray

Descargar Sword Master (2016) 1080p Latino




Aportes de DPeliculasHDmega la pass es:dpeliculashdmega.org Aportes de CinemaniaHD la pass es:cinemaniahdd.com
Guardado en : Acción

Películas relacionadas

  • Sicario (2015) Full 1080p Latino

    2015
    Sicario (2015) Full 1080p Latino

    5.0 2h 1m 2015

    En la zona fronteriza que se extiende entre Estados Unidos y México la joven Kate Macer, una idealista...

    Director: Judi Townsend

    Género: Acción

    Actores: Victor Garber

  • Atlantis El regreso de Milo (2003) Full 1080p Latino

    2003
    Atlantis El regreso de Milo (2003) Full 1080p Latino

    5.0 1h 10m 2003

    En la primera expedición (Atlantis: El Imperio Perdido), Milo y sus acompañantes encontraron la famosa...

    Director: Victor Cook

    Género: Acción

    Actores: Thomas F. Wilson

  • Sicario 2 soldado (2018) 1080p Latino

    2018
    Sicario 2 soldado (2018) 1080p Latino

    4.2 2 h 2 min 2018

    Descargar Sicario: Day of the Soldado HD Latino Mega El agente del FBI Matt Graver se une al operativo...

    Director: Stefano Sollima

    Género: Acción

    Actores: Zaw Tan

Comentarios 3
  • slash - 17 junio, 2017

    Gracias, esta buena la película, sigue poniendo mas cine asiático, saludos.

  • Javier - 02 junio, 2017

    Los links estan mal direccionados, tiene las partes de Countdown.

    Por favor corregir