Super Troopers 2 (2018) Full 1080p Latino

1.096 vistas
1 estrella2 estrellas3 estrellas4 estrellas5 estrellas (2 votos, promedio: 5,00 de 5)
Cargando…

Información de Super Troopers 2 (2018) Full 1080p Latino

Datos de la película

  • Calidad: Full 1080p
  • Audio: Español Latino AC3 5.1 BLURAY - Ingles DTS 5.1 BLURAY
  • Subtitulos: Español Latino PGS - Ingles PGS
  • Resolución: 1920x1080p
  • Formato: MKV
  • Codec: H.264
  • Encoder: Dracarys
  • Mediainfo: Clic para Mostrar Datos Ver
  • Format                                   : Matroska
    Format version                           : Version 4 / Version 2
    File size                                : 7.16 GiB
    Duration                                 : 1 h 39 min
    Overall bit rate                         : 10.3 Mb/s
    Movie name                               : CinemaniaHDD.net
    Encoded date                             : UTC 2018-07-14 05:12:07 / UTC 2018-07-13T05:28:05Z
    Writing application                      : mkvmerge v15.0.0 ('Duel with the Devil') 64-bit
    Writing library                          : libebml v1.3.5 + libmatroska v1.4.5 / Lavf57.7.2

    Video
    ID                                       : 1
    Format                                   : AVC
    Format/Info                              : Advanced Video Codec
    Format profile                           : High@L4.1
    Format settings                          : CABAC / 4 Ref Frames
    Format settings, CABAC                   : Yes
    Format settings, RefFrames               : 4 frames
    Codec ID                                 : V_MPEG4/ISO/AVC
    Duration                                 : 1 h 39 min
    Bit rate                                 : 8 142 kb/s
    Width                                    : 1 920 pixels
    Height                                   : 1 080 pixels
    Display aspect ratio                     : 16:9
    Frame rate mode                          : Constant
    Frame rate                               : 23.976 (24000/1001) FPS
    Color space                              : YUV
    Chroma subsampling                       : 4:2:0
    Bit depth                                : 8 bits
    Scan type                                : Progressive
    Bits/(Pixel*Frame)                       : 0.164
    Stream size                              : 5.66 GiB (79%)
    Title                                    : Super Troopers 2 (2018) Full 1080p Latino
    Writing library                          : x264 core 148 r2708 86b7198
    Encoding settings                        : cabac=1 / ref=4 / deblock=1:0:0 / analyse=0x3:0x133 / me=esa / subme=10 / psy=1 / psy_rd=1.00:0.00 / mixed_ref=1 / me_range=24 / chroma_me=1 / trellis=2 / 8x8dct=1 / cqm=0 / deadzone=21,11 / fast_pskip=1 / chroma_qp_offset=-2 / threads=34 / lookahead_threads=5 / sliced_threads=0 / nr=0 / decimate=1 / interlaced=0 / bluray_compat=0 / constrained_intra=0 / bframes=8 / b_pyramid=2 / b_adapt=2 / b_bias=0 / direct=3 / weightb=1 / open_gop=0 / weightp=2 / keyint=240 / keyint_min=24 / scenecut=40 / intra_refresh=0 / rc_lookahead=60 / rc=crf / mbtree=1 / crf=20.0 / qcomp=0.60 / qpmin=0 / qpmax=69 / qpstep=4 / vbv_maxrate=62500 / vbv_bufsize=78125 / crf_max=0.0 / nal_hrd=none / filler=0 / ip_ratio=1.40 / aq=1:1.00
    Language                                 : English
    Default                                  : Yes
    Forced                                   : No
    Color range                              : Limited
    Color primaries                          : BT.709
    Transfer characteristics                 : BT.709
    Matrix coefficients                      : BT.709
    Statistics Tags Issue                    : mkvmerge v15.0.0 ('Duel with the Devil') 64-bit 2018-07-14 05:12:07 / mkvmerge v15.0.0 ('Duel with the Devil') 64-bit 2018-07-14 05:12:07 / UTC 2018-07-13T05:28:05Z
    FromStats_BitRate                        : 8319157
    FromStats_Duration                       : 01:39:30.965000000
    FromStats_FrameCount                     : 143160
    FromStats_StreamSize                     : 6209174466

    Audio #1
    ID                                       : 2
    Format                                   : AC-3
    Format/Info                              : Audio Coding 3
    Format settings, Endianness              : Big
    Codec ID                                 : A_AC3
    Duration                                 : 1 h 39 min
    Bit rate mode                            : Constant
    Bit rate                                 : 448 kb/s
    Channel(s)                               : 6 channels
    Channel positions                        : Front: L C R, Side: L R, LFE
    Sampling rate                            : 48.0 kHz
    Frame rate                               : 31.250 FPS (1536 SPF)
    Bit depth                                : 16 bits
    Compression mode                         : Lossy
    Delay relative to video                  : 28 ms
    Stream size                              : 319 MiB (4%)
    Language                                 : Spanish
    Service kind                             : Complete Main
    Default                                  : Yes
    Forced                                   : No
    Statistics Tags Issue                    : mkvmerge v15.0.0 ('Duel with the Devil') 64-bit 2018-07-14 05:12:07 / mkvmerge v15.0.0 ('Duel with the Devil') 64-bit 2018-07-14 05:12:07 / UTC 2018-07-13T05:28:05Z
    FromStats_BitRate                        : 448000
    FromStats_Duration                       : 01:39:30.944000000
    FromStats_FrameCount                     : 186592
    FromStats_StreamSize                     : 334372864

    Audio #2
    ID                                       : 3
    Format                                   : DTS
    Format/Info                              : Digital Theater Systems
    Mode                                     : 16
    Format settings, Endianness              : Big
    Codec ID                                 : A_DTS
    Duration                                 : 1 h 39 min
    Bit rate mode                            : Constant
    Bit rate                                 : 1 509 kb/s
    Channel(s)                               : 6 channels
    Channel positions                        : Front: L C R, Side: L R, LFE
    Sampling rate                            : 48.0 kHz
    Frame rate                               : 93.750 FPS (512 SPF)
    Bit depth                                : 24 bits
    Compression mode                         : Lossy
    Stream size                              : 1.05 GiB (15%)
    Language                                 : English
    Default                                  : No
    Forced                                   : No
    Statistics Tags Issue                    : mkvmerge v15.0.0 ('Duel with the Devil') 64-bit 2018-07-14 05:12:07 / mkvmerge v15.0.0 ('Duel with the Devil') 64-bit 2018-07-14 05:12:07 / UTC 2018-07-13T05:28:05Z
    FromStats_BitRate                        : 1508999
    FromStats_Duration                       : 01:39:30.955000000
    FromStats_FrameCount                     : 559777
    FromStats_StreamSize                     : 1126271324

    Text #1
    ID                                       : 4
    Format                                   : PGS
    Muxing mode                              : zlib
    Codec ID                                 : S_HDMV/PGS
    Codec ID/Info                            : Picture based subtitle format used on BDs/HD-DVDs
    Language                                 : English
    Default                                  : No
    Forced                                   : No
    Statistics Tags Issue                    : mkvmerge v15.0.0 ('Duel with the Devil') 64-bit 2018-07-14 05:12:07 / mkvmerge v15.0.0 ('Duel with the Devil') 64-bit 2018-07-14 05:12:07 / UTC 2018-07-13T05:28:05Z
    FromStats_BitRate                        : 541
    FromStats_Duration                       : 00:59:13.217000000
    FromStats_FrameCount                     : 28
    FromStats_StreamSize                     : 240449

    Text #2
    ID                                       : 5
    Format                                   : PGS
    Muxing mode                              : zlib
    Codec ID                                 : S_HDMV/PGS
    Codec ID/Info                            : Picture based subtitle format used on BDs/HD-DVDs
    Language                                 : Spanish
    Default                                  : No
    Forced                                   : No
    Statistics Tags Issue                    : mkvmerge v15.0.0 ('Duel with the Devil') 64-bit 2018-07-14 05:12:07 / mkvmerge v15.0.0 ('Duel with the Devil') 64-bit 2018-07-14 05:12:07 / UTC 2018-07-13T05:28:05Z
    FromStats_BitRate                        : 58073
    FromStats_Duration                       : 01:37:18.541000000
    FromStats_FrameCount                     : 3586
    FromStats_StreamSize                     : 42382842

    Menu
    00:00:00.000                             : :Chapter 1
    00:05:15.398                             : :Chapter 2
    00:09:08.757                             : :Chapter 3
    00:12:43.012                             : :Chapter 4
    00:16:12.972                             : :Chapter 5
    00:22:11.956                             : :Chapter 6
    00:26:35.552                             : :Chapter 7
    00:29:48.620                             : :Chapter 8
    00:33:19.956                             : :Chapter 9
    00:36:33.608                             : :Chapter 10
    00:40:04.527                             : :Chapter 11
    00:43:10.880                             : :Chapter 12
    00:46:35.209                             : :Chapter 13
    00:51:43.142                             : :Chapter 14
    00:55:46.802                             : :Chapter 15
    01:01:09.207                             : :Chapter 16
    01:04:57.018                             : :Chapter 17
    01:07:07.065                             : :Chapter 18
    01:11:33.247                             : :Chapter 19
    01:14:53.531                             : :Chapter 20
    01:17:32.523                             : :Chapter 21
    01:22:55.137                             : :Chapter 22
    01:26:08.622                             : :Chapter 23
    01:28:43.902                             : :Chapter 24

  • Peso: 7.16 GiB

Sinopsis

Regresa la unidad de ley y orden favorita del público. Cuando surge un problema fronterizo internacional entre EE. UU. y Canadá, el grupo de supermaderos de Vermont formado por Mac, Thorny, Foster, Rabbit y Farva, son llamados para establecer un nuevo puesto de patrulla de carreteras en la zona en litigio. Lo que sigue es un trabajo policial nada convencional…

Ficha técnica

Video trailer de la película

Enlaces de descarga

Rip de Bluray

Descargar Super Troopers 2 (2018) Full 1080p Latino




Aportes de DPeliculasHDmega la pass es:dpeliculashdmega.org Aportes de CinemaniaHD la pass es:cinemaniahdd.com

Películas relacionadas

  • ¡Hombre al agua! (2018) 1080p Latino

    2018
    ¡Hombre al agua! (2018) 1080p Latino

    5.0 1 h 52 min 2018

    Kate es una madre soltera, trabajadora, madre de tres hijas, contratada para limpiar un yate de lujo...

    Director: Rob Greenberg

    Género: 1080p Portada Negra

    Actores: Toby Hargrave

  • El alma de la fiesta (2018) 1080p Latino

    2018
    El alma de la fiesta (2018) 1080p Latino

    0.0 1 h 44 min 2018

    Después de haber sido abandonada por su esposo, Deanna, ama de casa, decide darle un giro a su vida...

    Director: Ben Falcone

    Género: Comedia

    Actores: Yani Simone

  • Tully (2018) 1080p Latino

    2018
    Tully (2018) 1080p Latino

    0.0 1 h 35 min 2018

    La historia de una mujer con tres hijos que, incapaz de lidiar con su bebé recién nacido, contrata...

    Director: Jason Reitman

    Género: Comedia

    Actores: Stormy Ent

  • Si solo pudiera imaginar (2018) Full 1080p Latino

    2018
    Si solo pudiera imaginar (2018) Full 1080p Latino

    5.0 1 h 50 min 2018

    La historia real de la aclamada canción "I Can Only Imagine", la canción cristiana contemporánea más...

    Director: Jon Erwin

    Género: Drama

    Actores: Trace Adkins

  • El padre del año (2018) WEB-DL 1080p Latino

    2018
    El padre del año (2018) WEB-DL 1080p Latino

    0.0 1h 34m 2018

    Dos universitarios recién graduados discuten borrachos sobre quién de sus padres ganaría una pelea....

    Director: Tyler Spindel

    Género: Comedia

    Actores: Ralph Ayala

Comentarios 0