Super maderos (2001) Full 1080p Latino

927 vistas
1 estrella2 estrellas3 estrellas4 estrellas5 estrellas (4 votos, promedio: 4,75 de 5)
Cargando…

Información de Super maderos (2001) Full 1080p Latino

Datos de la película

  • Calidad: Full 1080p
  • Audio: Español Latino AC3 2.0 BLURAY - Ingles DTS 5.1 BLURAY
  • Subtitulos: Español Latino PGS - Ingles PGS
  • Resolución: 1920x1080p
  • Formato: MKV
  • Codec: H.264
  • Encoder: Dracarys
  • Mediainfo: Clic para Mostrar Datos Ver
  • Format                                   : Matroska
    Format version                           : Version 4 / Version 2
    File size                                : 6.30 GiB
    Duration                                 : 1 h 40 min
    Overall bit rate                         : 8 983 kb/s
    Movie name                               : CinemaniaHDD.net
    Encoded date                             : UTC 2018-05-29 19:13:09 / UTC 2018-05-18T08:23:20Z
    Writing application                      : mkvmerge v15.0.0 ('Duel with the Devil') 64-bit
    Writing library                          : libebml v1.3.5 + libmatroska v1.4.5 / Lavf57.7.2

    Video
    ID                                       : 1
    Format                                   : AVC
    Format/Info                              : Advanced Video Codec
    Format profile                           : High@L4.1
    Format settings                          : CABAC / 4 Ref Frames
    Format settings, CABAC                   : Yes
    Format settings, RefFrames               : 4 frames
    Codec ID                                 : V_MPEG4/ISO/AVC
    Duration                                 : 1 h 40 min
    Bit rate                                 : 7 071 kb/s
    Width                                    : 1 920 pixels
    Height                                   : 1 080 pixels
    Display aspect ratio                     : 16:9
    Frame rate mode                          : Constant
    Frame rate                               : 23.976 (24000/1001) FPS
    Color space                              : YUV
    Chroma subsampling                       : 4:2:0
    Bit depth                                : 8 bits
    Scan type                                : Progressive
    Bits/(Pixel*Frame)                       : 0.142
    Stream size                              : 4.96 GiB (79%)
    Title                                    : Super maderos (2001) Full 1080p Latino
    Writing library                          : x264 core 148 r2708 86b7198
    Encoding settings                        : cabac=1 / ref=4 / deblock=1:0:0 / analyse=0x3:0x133 / me=esa / subme=9 / psy=1 / psy_rd=1.00:0.00 / mixed_ref=1 / me_range=16 / chroma_me=1 / trellis=2 / 8x8dct=1 / cqm=0 / deadzone=21,11 / fast_pskip=1 / chroma_qp_offset=-2 / threads=34 / lookahead_threads=2 / sliced_threads=0 / nr=0 / decimate=1 / interlaced=0 / bluray_compat=0 / constrained_intra=0 / bframes=3 / b_pyramid=2 / b_adapt=2 / b_bias=0 / direct=3 / weightb=1 / open_gop=0 / weightp=2 / keyint=240 / keyint_min=24 / scenecut=40 / intra_refresh=0 / rc_lookahead=60 / rc=crf / mbtree=1 / crf=20.0 / qcomp=0.60 / qpmin=0 / qpmax=69 / qpstep=4 / vbv_maxrate=62500 / vbv_bufsize=78125 / crf_max=0.0 / nal_hrd=none / filler=0 / ip_ratio=1.40 / aq=1:1.00
    Language                                 : English
    Default                                  : Yes
    Forced                                   : No
    Color range                              : Limited
    Color primaries                          : BT.709
    Transfer characteristics                 : BT.709
    Matrix coefficients                      : BT.709
    Statistics Tags Issue                    : mkvmerge v15.0.0 ('Duel with the Devil') 64-bit 2018-05-29 19:13:09 / mkvmerge v15.0.0 ('Duel with the Devil') 64-bit 2018-05-29 19:13:09 / UTC 2018-05-18T08:23:20Z
    FromStats_BitRate                        : 7187681
    FromStats_Duration                       : 01:40:20.223000000
    FromStats_FrameCount                     : 144341
    FromStats_StreamSize                     : 5408930337

    Audio #1
    ID                                       : 2
    Format                                   : AC-3
    Format/Info                              : Audio Coding 3
    Mode                                     : Dolby Digital
    Format settings, Endianness              : Big
    Codec ID                                 : A_AC3
    Duration                                 : 1 h 40 min
    Bit rate mode                            : Constant
    Bit rate                                 : 224 kb/s
    Channel(s)                               : 2 channels
    Channel positions                        : Front: L R
    Sampling rate                            : 48.0 kHz
    Frame rate                               : 31.250 FPS (1536 SPF)
    Bit depth                                : 16 bits
    Compression mode                         : Lossy
    Stream size                              : 161 MiB (2%)
    Language                                 : Spanish
    Service kind                             : Complete Main
    Default                                  : Yes
    Forced                                   : No
    Statistics Tags Issue                    : mkvmerge v15.0.0 ('Duel with the Devil') 64-bit 2018-05-29 19:13:09 / mkvmerge v15.0.0 ('Duel with the Devil') 64-bit 2018-05-29 19:13:09 / UTC 2018-05-18T08:23:20Z
    FromStats_BitRate                        : 224000
    FromStats_Duration                       : 01:40:20.288000000
    FromStats_FrameCount                     : 188134
    FromStats_StreamSize                     : 168568064

    Audio #2
    ID                                       : 3
    Format                                   : DTS
    Format/Info                              : Digital Theater Systems
    Mode                                     : 16
    Format settings, Endianness              : Big
    Codec ID                                 : A_DTS
    Duration                                 : 1 h 40 min
    Bit rate mode                            : Constant
    Bit rate                                 : 1 509 kb/s
    Channel(s)                               : 6 channels
    Channel positions                        : Front: L C R, Side: L R, LFE
    Sampling rate                            : 48.0 kHz
    Frame rate                               : 93.750 FPS (512 SPF)
    Bit depth                                : 24 bits
    Compression mode                         : Lossy
    Stream size                              : 1.06 GiB (17%)
    Language                                 : English
    Default                                  : No
    Forced                                   : No
    Statistics Tags Issue                    : mkvmerge v15.0.0 ('Duel with the Devil') 64-bit 2018-05-29 19:13:09 / mkvmerge v15.0.0 ('Duel with the Devil') 64-bit 2018-05-29 19:13:09 / UTC 2018-05-18T08:23:20Z
    FromStats_BitRate                        : 1509000
    FromStats_Duration                       : 01:40:20.256000000
    FromStats_FrameCount                     : 564399
    FromStats_StreamSize                     : 1135570788

    Text #1
    ID                                       : 4
    Format                                   : PGS
    Muxing mode                              : zlib
    Codec ID                                 : S_HDMV/PGS
    Codec ID/Info                            : Picture based subtitle format used on BDs/HD-DVDs
    Language                                 : English
    Default                                  : No
    Forced                                   : No
    Statistics Tags Issue                    : mkvmerge v15.0.0 ('Duel with the Devil') 64-bit 2018-05-29 19:13:09 / mkvmerge v15.0.0 ('Duel with the Devil') 64-bit 2018-05-29 19:13:09 / UTC 2018-05-18T08:23:20Z
    FromStats_BitRate                        : 83082
    FromStats_Duration                       : 01:39:06.649000000
    FromStats_FrameCount                     : 3051
    FromStats_StreamSize                     : 61757971

    Text #2
    ID                                       : 5
    Format                                   : PGS
    Muxing mode                              : zlib
    Codec ID                                 : S_HDMV/PGS
    Codec ID/Info                            : Picture based subtitle format used on BDs/HD-DVDs
    Language                                 : Spanish
    Default                                  : No
    Forced                                   : No
    Statistics Tags Issue                    : mkvmerge v15.0.0 ('Duel with the Devil') 64-bit 2018-05-29 19:13:09 / mkvmerge v15.0.0 ('Duel with the Devil') 64-bit 2018-05-29 19:13:09 / UTC 2018-05-18T08:23:20Z
    FromStats_BitRate                        : 63479
    FromStats_Duration                       : 01:39:09.152000000
    FromStats_FrameCount                     : 2928
    FromStats_StreamSize                     : 47206259

    Text #3
    ID                                       : 6
    Format                                   : PGS
    Muxing mode                              : zlib
    Codec ID                                 : S_HDMV/PGS
    Codec ID/Info                            : Picture based subtitle format used on BDs/HD-DVDs
    Title                                    : Forzados
    Language                                 : Spanish
    Default                                  : Yes
    Forced                                   : Yes
    Statistics Tags Issue                    : mkvmerge v15.0.0 ('Duel with the Devil') 64-bit 2018-05-29 19:13:09 / mkvmerge v15.0.0 ('Duel with the Devil') 64-bit 2018-05-29 19:13:09 / UTC 2018-05-18T08:23:20Z
    FromStats_BitRate                        : 867
    FromStats_Duration                       : 01:32:17.240000000
    FromStats_FrameCount                     : 46
    FromStats_StreamSize                     : 600197

    Menu
    00:00:00.000                             : :Chapter 1
    00:03:15.320                             : :Chapter 2
    00:06:50.368                             : :Chapter 3
    00:11:49.334                             : :Chapter 4
    00:15:20.878                             : :Chapter 5
    00:18:47.335                             : :Chapter 6
    00:21:46.055                             : :Chapter 7
    00:25:54.887                             : :Chapter 8
    00:31:25.675                             : :Chapter 9
    00:40:01.733                             : :Chapter 10
    00:45:18.633                             : :Chapter 11
    00:55:34.832                             : :Chapter 12
    01:04:09.929                             : :Chapter 13
    01:05:50.071                             : :Chapter 14
    01:07:57.907                             : :Chapter 15
    01:15:28.399                             : :Chapter 16
    01:16:24.914                             : :Chapter 17
    01:20:47.593                             : :Chapter 18
    01:27:59.232                             : :Chapter 19
    01:33:16.508                             : :Chapter 20

  • Peso: 6.30 GiB

Sinopsis

Cinco policiás del estado norteamericano de Vermont, nada reconocidos por sus superiores, crean situaciones de angustia entre los conductores de la autopista. Película escrita y protagonizada por un grupo de cómicos que se autodenomina como “Broken Lizard”.

Ficha técnica

Video trailer de la película

Enlaces de descarga

Rip de Bluray

Descargar Super maderos (2001) Full 1080p Latino




Aportes de DPeliculasHDmega la pass es:dpeliculashdmega.org Aportes de CinemaniaHD la pass es:cinemaniahdd.com

Películas relacionadas

Comentarios 0