Sueño de fuga (1994) Full 1080p Latino

1.189 vistas
1 estrella2 estrellas3 estrellas4 estrellas5 estrellas (4 votos, promedio: 5,00 de 5)
Cargando…

Información de Sueño de fuga (1994) Full 1080p Latino

Datos de la película

  • Calidad: Full 1080p
  • Audio: Español Latino AC3 2.0 BLURAY - Ingles AC3 5.1 BLURAY
  • Subtitulos: Español Latino PGS - Ingles PGS
  • Resolución: 1920x1080p
  • Formato: MKV
  • Codec: H.264
  • Encoder: Dracarys
  • Mediainfo: Clic para Mostrar Datos Ver
  • Format                                   : Matroska
    Format version                           : Version 4 / Version 2
    File size                                : 6.71 GiB
    Duration                                 : 2 h 22 min
    Overall bit rate                         : 6 741 kb/s
    Movie name                               : CinemaniaHDD.net
    Encoded date                             : UTC 2018-05-25 04:03:16 / UTC 2018-05-24T06:33:33Z
    Writing application                      : mkvmerge v15.0.0 ('Duel with the Devil') 64-bit
    Writing library                          : libebml v1.3.5 + libmatroska v1.4.5 / Lavf57.7.2

    Video
    ID                                       : 1
    Format                                   : AVC
    Format/Info                              : Advanced Video Codec
    Format profile                           : High@L4.1
    Format settings                          : CABAC / 4 Ref Frames
    Format settings, CABAC                   : Yes
    Format settings, RefFrames               : 4 frames
    Codec ID                                 : V_MPEG4/ISO/AVC
    Duration                                 : 2 h 22 min
    Bit rate                                 : 5 775 kb/s
    Width                                    : 1 920 pixels
    Height                                   : 1 080 pixels
    Display aspect ratio                     : 16:9
    Frame rate mode                          : Constant
    Frame rate                               : 23.976 (24000/1001) FPS
    Color space                              : YUV
    Chroma subsampling                       : 4:2:0
    Bit depth                                : 8 bits
    Scan type                                : Progressive
    Bits/(Pixel*Frame)                       : 0.116
    Stream size                              : 5.75 GiB (86%)
    Title                                    : Sueño de fuga (1994) Full 1080p Latino
    Writing library                          : x264 core 148 r2708 86b7198
    Encoding settings                        : cabac=1 / ref=4 / deblock=1:0:0 / analyse=0x3:0x133 / me=esa / subme=9 / psy=1 / psy_rd=1.00:0.00 / mixed_ref=1 / me_range=16 / chroma_me=1 / trellis=2 / 8x8dct=1 / cqm=0 / deadzone=21,11 / fast_pskip=1 / chroma_qp_offset=-2 / threads=34 / lookahead_threads=2 / sliced_threads=0 / nr=0 / decimate=1 / interlaced=0 / bluray_compat=0 / constrained_intra=0 / bframes=3 / b_pyramid=2 / b_adapt=2 / b_bias=0 / direct=3 / weightb=1 / open_gop=0 / weightp=2 / keyint=240 / keyint_min=24 / scenecut=40 / intra_refresh=0 / rc_lookahead=60 / rc=crf / mbtree=1 / crf=20.0 / qcomp=0.60 / qpmin=0 / qpmax=69 / qpstep=4 / vbv_maxrate=62500 / vbv_bufsize=78125 / crf_max=0.0 / nal_hrd=none / filler=0 / ip_ratio=1.40 / aq=1:1.00
    Language                                 : English
    Default                                  : Yes
    Forced                                   : No
    Color range                              : Limited
    Color primaries                          : BT.709
    Transfer characteristics                 : BT.709
    Matrix coefficients                      : BT.709
    Statistics Tags Issue                    : mkvmerge v15.0.0 ('Duel with the Devil') 64-bit 2018-05-25 04:03:16 / mkvmerge v15.0.0 ('Duel with the Devil') 64-bit 2018-05-25 04:03:16 / UTC 2018-05-24T06:33:33Z
    FromStats_BitRate                        : 5879615
    FromStats_Duration                       : 02:22:33.378000000
    FromStats_FrameCount                     : 205076
    FromStats_StreamSize                     : 6286321448

    Audio #1
    ID                                       : 2
    Format                                   : AC-3
    Format/Info                              : Audio Coding 3
    Mode                                     : Dolby Digital
    Format settings, Endianness              : Big
    Codec ID                                 : A_AC3
    Duration                                 : 2 h 22 min
    Bit rate mode                            : Constant
    Bit rate                                 : 192 kb/s
    Channel(s)                               : 2 channels
    Channel positions                        : Front: L R
    Sampling rate                            : 48.0 kHz
    Frame rate                               : 31.250 FPS (1536 SPF)
    Bit depth                                : 16 bits
    Compression mode                         : Lossy
    Stream size                              : 196 MiB (3%)
    Language                                 : Spanish
    Service kind                             : Complete Main
    Default                                  : Yes
    Forced                                   : No
    Statistics Tags Issue                    : mkvmerge v15.0.0 ('Duel with the Devil') 64-bit 2018-05-25 04:03:16 / mkvmerge v15.0.0 ('Duel with the Devil') 64-bit 2018-05-25 04:03:16 / UTC 2018-05-24T06:33:33Z
    FromStats_BitRate                        : 192000
    FromStats_Duration                       : 02:22:33.408000000
    FromStats_FrameCount                     : 267294
    FromStats_StreamSize                     : 205281792

    Audio #2
    ID                                       : 3
    Format                                   : AC-3
    Format/Info                              : Audio Coding 3
    Format settings, Endianness              : Big
    Codec ID                                 : A_AC3
    Duration                                 : 2 h 22 min
    Bit rate mode                            : Constant
    Bit rate                                 : 640 kb/s
    Channel(s)                               : 6 channels
    Channel positions                        : Front: L C R, Side: L R, LFE
    Sampling rate                            : 48.0 kHz
    Frame rate                               : 31.250 FPS (1536 SPF)
    Bit depth                                : 16 bits
    Compression mode                         : Lossy
    Stream size                              : 653 MiB (9%)
    Language                                 : English
    Service kind                             : Complete Main
    Default                                  : No
    Forced                                   : No
    Statistics Tags Issue                    : mkvmerge v15.0.0 ('Duel with the Devil') 64-bit 2018-05-25 04:03:16 / mkvmerge v15.0.0 ('Duel with the Devil') 64-bit 2018-05-25 04:03:16 / UTC 2018-05-24T06:33:33Z
    FromStats_BitRate                        : 640000
    FromStats_Duration                       : 02:22:33.408000000
    FromStats_FrameCount                     : 267294
    FromStats_StreamSize                     : 684272640

    Text #1
    ID                                       : 4
    Format                                   : PGS
    Muxing mode                              : zlib
    Codec ID                                 : S_HDMV/PGS
    Codec ID/Info                            : Picture based subtitle format used on BDs/HD-DVDs
    Language                                 : English
    Default                                  : No
    Forced                                   : No
    Statistics Tags Issue                    : mkvmerge v15.0.0 ('Duel with the Devil') 64-bit 2018-05-25 04:03:16 / mkvmerge v15.0.0 ('Duel with the Devil') 64-bit 2018-05-25 04:03:16 / UTC 2018-05-24T06:33:33Z
    FromStats_BitRate                        : 32773
    FromStats_Duration                       : 02:15:39.256000000
    FromStats_FrameCount                     : 3372
    FromStats_StreamSize                     : 33344129

    Text #2
    ID                                       : 5
    Format                                   : PGS
    Muxing mode                              : zlib
    Codec ID                                 : S_HDMV/PGS
    Codec ID/Info                            : Picture based subtitle format used on BDs/HD-DVDs
    Language                                 : Spanish
    Default                                  : No
    Forced                                   : No
    Statistics Tags Issue                    : mkvmerge v15.0.0 ('Duel with the Devil') 64-bit 2018-05-25 04:03:16 / mkvmerge v15.0.0 ('Duel with the Devil') 64-bit 2018-05-25 04:03:16 / UTC 2018-05-24T06:33:33Z
    FromStats_BitRate                        : 29621
    FromStats_Duration                       : 02:17:30.409000000
    FromStats_FrameCount                     : 3386
    FromStats_StreamSize                     : 30548968

    Menu
    00:00:00.000                             : :Chapter 1
    00:04:41.114                             : :Chapter 2
    00:06:40.817                             : :Chapter 3
    00:10:08.316                             : :Chapter 4
    00:13:47.076                             : :Chapter 5
    00:18:00.913                             : :Chapter 6
    00:23:44.256                             : :Chapter 7
    00:29:02.074                             : :Chapter 8
    00:33:33.845                             : :Chapter 9
    00:38:51.913                             : :Chapter 10
    00:41:07.256                             : :Chapter 11
    00:42:41.642                             : :Chapter 12
    00:46:15.398                             : :Chapter 13
    00:48:15.434                             : :Chapter 14
    00:51:22.538                             : :Chapter 15
    00:57:20.103                             : :Chapter 16
    01:00:28.458                             : :Chapter 17
    01:05:46.818                             : :Chapter 18
    01:07:17.659                             : :Chapter 19
    01:11:04.677                             : :Chapter 20
    01:13:54.221                             : :Chapter 21
    01:15:56.552                             : :Chapter 22
    01:21:09.239                             : :Chapter 23
    01:23:59.952                             : :Chapter 24
    01:29:27.279                             : :Chapter 25
    01:32:11.484                             : :Chapter 26
    01:35:38.149                             : :Chapter 27
    01:38:29.862                             : :Chapter 28
    01:40:39.367                             : :Chapter 29
    01:47:24.146                             : :Chapter 30
    01:50:46.640                             : :Chapter 31
    01:54:32.115                             : :Chapter 32
    02:00:36.521                             : :Chapter 33
    02:04:10.318                             : :Chapter 34
    02:05:51.377                             : :Chapter 35
    02:08:26.824                             : :Chapter 36
    02:10:14.515                             : :Chapter 37
    02:12:57.136                             : :Chapter 38
    02:16:28.722                             : :Chapter 39
    02:18:08.572                             : :Chapter 40

  • Peso: 6.71 GiB

Sinopsis

Acusado del asesinato de su mujer, Andrew Dufresne, tras ser condenado a cadena perpetua, es enviado a la prisión de Shawshank. Con el paso de los años conseguirá ganarse la confianza del director del centro y el respeto de sus compañeros presidiarios, especialmente de Red, el jefe de la mafia de los sobornos.

Ficha técnica

Video trailer de la película

Enlaces de descarga

Rip de Bluray

Descargar Sueño de fuga (1994) Full 1080p Latino




Aportes de DPeliculasHDmega la pass es:dpeliculashdmega.org Aportes de CinemaniaHD la pass es:cinemaniahdd.com
Guardado en : Crimen , Drama

Películas relacionadas

Comentarios 0