Suburbicon: bienvenidos al paraíso (2017) Full 1080p Latino

941 vistas
1 estrella2 estrellas3 estrellas4 estrellas5 estrellas (3 votos, promedio: 4,00 de 5)
Cargando…

Información de Suburbicon: bienvenidos al paraíso (2017) Full 1080p Latino

Datos de la película

  • Calidad: Full 1080p
  • Audio: Español Latino AC3 5.1 BLURAY - Ingles DTS 5.1 BLURAY
  • Subtitulos: Español Latino PGS - Ingles PGS
  • Resolución: 1920X1080p
  • Formato: MKV
  • Codec: H.264
  • Encoder: Dracarys
  • Mediainfo: Clic para Mostrar Datos Ver
  • Format                                   : Matroska
    Format version                           : Version 4 / Version 2
    File size                                : 3.52 GiB
    Duration                                 : 1 h 45 min
    Overall bit rate                         : 4 798 kb/s
    Movie name                               : CinemaniaHDD.com
    Encoded date                             : UTC 2018-01-31 15:59:56 / UTC 2018-01-31T12:55:46Z
    Writing application                      : mkvmerge v15.0.0 ('Duel with the Devil') 64-bit
    Writing library                          : libebml v1.3.5 + libmatroska v1.4.5 / Lavf57.7.2

    Video
    ID                                       : 1
    Format                                   : AVC
    Format/Info                              : Advanced Video Codec
    Format profile                           : High@L4.1
    Format settings                          : CABAC / 4 Ref Frames
    Format settings, CABAC                   : Yes
    Format settings, RefFrames               : 4 frames
    Codec ID                                 : V_MPEG4/ISO/AVC
    Duration                                 : 1 h 45 min
    Bit rate                                 : 2 554 kb/s
    Width                                    : 1 920 pixels
    Height                                   : 1 080 pixels
    Display aspect ratio                     : 16:9
    Frame rate mode                          : Constant
    Frame rate                               : 23.976 (24000/1001) FPS
    Color space                              : YUV
    Chroma subsampling                       : 4:2:0
    Bit depth                                : 8 bits
    Scan type                                : Progressive
    Bits/(Pixel*Frame)                       : 0.051
    Stream size                              : 1.87 GiB (53%)
    Title                                    : Suburbicon: bienvenidos al paraíso (2017) Full 1080p Latino
    Writing library                          : x264 core 148 r2708 86b7198
    Encoding settings                        : cabac=1 / ref=4 / deblock=1:0:0 / analyse=0x3:0x133 / me=esa / subme=10 / psy=1 / psy_rd=1.00:0.00 / mixed_ref=1 / me_range=24 / chroma_me=1 / trellis=2 / 8x8dct=1 / cqm=0 / deadzone=21,11 / fast_pskip=1 / chroma_qp_offset=-2 / threads=34 / lookahead_threads=5 / sliced_threads=0 / nr=0 / decimate=1 / interlaced=0 / bluray_compat=0 / constrained_intra=0 / bframes=8 / b_pyramid=2 / b_adapt=2 / b_bias=0 / direct=3 / weightb=1 / open_gop=0 / weightp=2 / keyint=240 / keyint_min=24 / scenecut=40 / intra_refresh=0 / rc_lookahead=60 / rc=crf / mbtree=1 / crf=20.0 / qcomp=0.60 / qpmin=0 / qpmax=69 / qpstep=4 / vbv_maxrate=62500 / vbv_bufsize=78125 / crf_max=0.0 / nal_hrd=none / filler=0 / ip_ratio=1.40 / aq=1:1.00
    Language                                 : English
    Default                                  : Yes
    Forced                                   : No
    Color range                              : Limited
    Color primaries                          : BT.709
    Transfer characteristics                 : BT.709
    Matrix coefficients                      : BT.709
    Statistics Tags Issue                    : mkvmerge v15.0.0 ('Duel with the Devil') 64-bit 2018-01-31 15:59:56 / mkvmerge v15.0.0 ('Duel with the Devil') 64-bit 2018-01-31 15:59:56 / UTC 2018-01-31T12:55:46Z
    FromStats_BitRate                        : 2627575
    FromStats_Duration                       : 01:45:02.588000000
    FromStats_FrameCount                     : 151111
    FromStats_StreamSize                     : 2070065370

    Audio #1
    ID                                       : 2
    Format                                   : AC-3
    Format/Info                              : Audio Coding 3
    Format settings, Endianness              : Big
    Codec ID                                 : A_AC3
    Duration                                 : 1 h 45 min
    Bit rate mode                            : Constant
    Bit rate                                 : 640 kb/s
    Channel(s)                               : 6 channels
    Channel positions                        : Front: L C R, Side: L R, LFE
    Sampling rate                            : 48.0 kHz
    Frame rate                               : 31.250 FPS (1536 SPF)
    Bit depth                                : 16 bits
    Compression mode                         : Lossy
    Stream size                              : 481 MiB (13%)
    Language                                 : Spanish
    Service kind                             : Complete Main
    Default                                  : Yes
    Forced                                   : No
    Statistics Tags Issue                    : mkvmerge v15.0.0 ('Duel with the Devil') 64-bit 2018-01-31 15:59:56 / mkvmerge v15.0.0 ('Duel with the Devil') 64-bit 2018-01-31 15:59:56 / UTC 2018-01-31T12:55:46Z
    FromStats_BitRate                        : 640000
    FromStats_Duration                       : 01:45:02.592000000
    FromStats_FrameCount                     : 196956
    FromStats_StreamSize                     : 504207360

    Audio #2
    ID                                       : 3
    Format                                   : DTS
    Format/Info                              : Digital Theater Systems
    Mode                                     : 16
    Format settings, Endianness              : Big
    Codec ID                                 : A_DTS
    Duration                                 : 1 h 45 min
    Bit rate mode                            : Constant
    Bit rate                                 : 1 509 kb/s
    Channel(s)                               : 6 channels
    Channel positions                        : Front: L C R, Side: L R, LFE
    Sampling rate                            : 48.0 kHz
    Frame rate                               : 93.750 FPS (512 SPF)
    Bit depth                                : 24 bits
    Compression mode                         : Lossy
    Stream size                              : 1.11 GiB (31%)
    Language                                 : English
    Default                                  : No
    Forced                                   : No
    Statistics Tags Issue                    : mkvmerge v15.0.0 ('Duel with the Devil') 64-bit 2018-01-31 15:59:56 / mkvmerge v15.0.0 ('Duel with the Devil') 64-bit 2018-01-31 15:59:56 / UTC 2018-01-31T12:55:46Z
    FromStats_BitRate                        : 1509000
    FromStats_Duration                       : 01:45:02.592000000
    FromStats_FrameCount                     : 590868
    FromStats_StreamSize                     : 1188826416

    Text #1
    ID                                       : 4
    Format                                   : PGS
    Muxing mode                              : zlib
    Codec ID                                 : S_HDMV/PGS
    Codec ID/Info                            : Picture based subtitle format used on BDs/HD-DVDs
    Language                                 : Spanish
    Default                                  : No
    Forced                                   : No
    Statistics Tags Issue                    : mkvmerge v15.0.0 ('Duel with the Devil') 64-bit 2018-01-31 15:59:56 / mkvmerge v15.0.0 ('Duel with the Devil') 64-bit 2018-01-31 15:59:56 / UTC 2018-01-31T12:55:46Z
    FromStats_BitRate                        : 33209
    FromStats_Duration                       : 01:35:00.153000000
    FromStats_FrameCount                     : 2538
    FromStats_StreamSize                     : 23662103

    Text #2
    ID                                       : 5
    Format                                   : PGS
    Muxing mode                              : zlib
    Codec ID                                 : S_HDMV/PGS
    Codec ID/Info                            : Picture based subtitle format used on BDs/HD-DVDs
    Language                                 : English
    Default                                  : No
    Forced                                   : No
    Statistics Tags Issue                    : mkvmerge v15.0.0 ('Duel with the Devil') 64-bit 2018-01-31 15:59:56 / mkvmerge v15.0.0 ('Duel with the Devil') 64-bit 2018-01-31 15:59:56 / UTC 2018-01-31T12:55:46Z
    FromStats_BitRate                        : 33601
    FromStats_Duration                       : 01:34:58.067000000
    FromStats_FrameCount                     : 2544
    FromStats_StreamSize                     : 23933087

    Menu
    00:00:00.000                             : :Chapter 1
    00:04:50.165                             : :Chapter 2
    00:15:11.452                             : :Chapter 3
    00:23:09.305                             : :Chapter 4
    00:33:08.612                             : :Chapter 5
    00:39:36.916                             : :Chapter 6
    00:44:29.125                             : :Chapter 7
    00:49:19.540                             : :Chapter 8
    00:56:36.560                             : :Chapter 9
    01:05:06.778                             : :Chapter 10
    01:14:14.283                             : :Chapter 11
    01:23:46.855                             : :Chapter 12
    01:27:54.352                             : :Chapter 13
    01:33:47.914                             : :Chapter 14
    01:37:15.204                             : :Chapter 15

  • Peso: 3.52 GiB

Sinopsis

Un misterio criminal ambientado en un tranquilo pueblo familiar norteamericano durante los años 50, donde lo mejor y lo peor de la humanidad se ve reflejado en las vidas de la gente corriente. Cuando un allanamiento de morada se vuelve mortal, una familia aparentemente perfecta empezará a hacer uso del chantaje, la venganza y la traición.

Ficha técnica

Video trailer de la película

Enlaces de descarga

Rip de Bluray

Descargar Suburbicon: bienvenidos al paraíso (2017) Full 1080p Latino




Aportes de DPeliculasHDmega la pass es:dpeliculashdmega.org Aportes de CinemaniaHD la pass es:cinemaniahdd.com

Películas relacionadas

Comentarios 2
  • TorukMato - 01 febrero, 2018

    hola dracarys….tremendo trabajo…exelente,pero 1 cosita…crees que puedas incluir en tus movies los sustitulos tambien en SRT,ya q uso 1 cajita de esas de media y no asepta ese formato de PGS…pero si SRT…por favor si no es molestia …te lo agradeseria….a 1 cosa mas amigo….gracias por la movie…..exelente..!!!

    • Dracarys - 01 febrero, 2018

      Agregare los SRT en las Próximas películas. Gracias y saludos!