Stranger Things (2016) Primera Temporada Full 1080p Latino

2.706 vistas
1 estrella2 estrellas3 estrellas4 estrellas5 estrellas (7 votos, promedio: 4,29 de 5)
Cargando…

Información de Stranger Things (2016) Primera Temporada Full 1080p Latino

Datos de la película

  • Calidad: Full 1080p
  • Audio: Español Latino AC3 5.1 Netflix - Ingles AC3 5.1 BLURAY
  • Subtitulos: Español Latino SRT
  • Resolución: 1920X1080
  • Formato: MKV
  • Codec: H.264
  • Encoder: Dpelis
  • Mediainfo: Clic para Mostrar Datos Ver
  • Format                                   : Matroska
    Format version                           : Version 4 / Version 2
    File size                                : 2.37 GiB
    Duration                                 : 48 min 23 s
    Overall bit rate                         : 7 021 kb/s
    Movie name                               : dpeliculashdmega.org
    Encoded date                             : UTC 2017-11-19 06:19:36 / UTC 2017-11-18T07:00:01Z
    Writing application                      : mkvmerge v15.0.0 ('Duel with the Devil') 64-bit
    Writing library                          : libebml v1.3.5 + libmatroska v1.4.5 / Lavf57.7.2

    Video
    ID                                       : 1
    Format                                   : AVC
    Format/Info                              : Advanced Video Codec
    Format profile                           : High@L4.1
    Format settings                          : CABAC / 4 Ref Frames
    Format settings, CABAC                   : Yes
    Format settings, RefFrames               : 4 frames
    Codec ID                                 : V_MPEG4/ISO/AVC
    Duration                                 : 48 min 23 s
    Bit rate                                 : 6 050 kb/s
    Width                                    : 1 920 pixels
    Height                                   : 1 080 pixels
    Display aspect ratio                     : 16:9
    Frame rate mode                          : Constant
    Frame rate                               : 23.976 (24000/1001) FPS
    Color space                              : YUV
    Chroma subsampling                       : 4:2:0
    Bit depth                                : 8 bits
    Scan type                                : Progressive
    Bits/(Pixel*Frame)                       : 0.122
    Stream size                              : 2.04 GiB (86%)
    Title                                    : Stranger Things (2016) Cap. 1 Full 1080p Latino
    Writing library                          : x264 core 148 r2708 86b7198
    Encoding settings                        : cabac=1 / ref=4 / deblock=1:0:0 / analyse=0x3:0x133 / me=esa / subme=10 / psy=1 / psy_rd=1.00:0.00 / mixed_ref=1 / me_range=24 / chroma_me=1 / trellis=2 / 8x8dct=1 / cqm=0 / deadzone=21,11 / fast_pskip=1 / chroma_qp_offset=-2 / threads=34 / lookahead_threads=5 / sliced_threads=0 / nr=0 / decimate=1 / interlaced=0 / bluray_compat=0 / constrained_intra=0 / bframes=8 / b_pyramid=2 / b_adapt=2 / b_bias=0 / direct=3 / weightb=1 / open_gop=0 / weightp=2 / keyint=240 / keyint_min=24 / scenecut=40 / intra_refresh=0 / rc_lookahead=60 / rc=crf / mbtree=1 / crf=20.0 / qcomp=0.60 / qpmin=0 / qpmax=69 / qpstep=4 / vbv_maxrate=62500 / vbv_bufsize=78125 / crf_max=0.0 / nal_hrd=none / filler=0 / ip_ratio=1.40 / aq=1:1.00
    Language                                 : English
    Default                                  : Yes
    Forced                                   : No
    Color range                              : Limited
    Color primaries                          : BT.709
    Transfer characteristics                 : BT.709
    Matrix coefficients                      : BT.709
    Statistics Tags Issue                    : mkvmerge v15.0.0 ('Duel with the Devil') 64-bit 2017-11-19 06:19:36 / mkvmerge v15.0.0 ('Duel with the Devil') 64-bit 2017-11-19 06:19:36 / UTC 2017-11-18T07:00:01Z
    FromStats_BitRate                        : 6308337
    FromStats_Duration                       : 00:47:32.850000000
    FromStats_FrameCount                     : 68400
    FromStats_StreamSize                     : 2249592722

    Audio #1
    ID                                       : 2
    Format                                   : E-AC-3
    Format/Info                              : Enhanced Audio Coding 3
    Format settings, Endianness              : Big
    Codec ID                                 : A_EAC3
    Duration                                 : 48 min 23 s
    Bit rate mode                            : Constant
    Bit rate                                 : 192 kb/s
    Channel(s)                               : 6 channels
    Channel positions                        : Front: L C R, Side: L R, LFE
    Sampling rate                            : 48.0 kHz
    Frame rate                               : 187.500 FPS (256 SPF)
    Compression mode                         : Lossy
    Stream size                              : 66.5 MiB (3%)
    Title                                    : Latino-AC3
    Language                                 : Spanish
    Service kind                             : Complete Main
    Default                                  : Yes
    Forced                                   : No
    Statistics Tags Issue                    : mkvmerge v15.0.0 ('Duel with the Devil') 64-bit 2017-11-19 06:19:36 / mkvmerge v15.0.0 ('Duel with the Devil') 64-bit 2017-11-19 06:19:36 / UTC 2017-11-18T07:00:01Z
    FromStats_BitRate                        : 192000
    FromStats_Duration                       : 00:48:23.456000000
    FromStats_FrameCount                     : 90733
    FromStats_StreamSize                     : 69682944

    Audio #2
    ID                                       : 3
    Format                                   : AC-3
    Format/Info                              : Audio Coding 3
    Format settings, Endianness              : Big
    Codec ID                                 : A_AC3
    Duration                                 : 48 min 23 s
    Bit rate mode                            : Constant
    Bit rate                                 : 640 kb/s
    Channel(s)                               : 6 channels
    Channel positions                        : Front: L C R, Side: L R, LFE
    Sampling rate                            : 48.0 kHz
    Frame rate                               : 31.250 FPS (1536 SPF)
    Bit depth                                : 16 bits
    Compression mode                         : Lossy
    Stream size                              : 222 MiB (9%)
    Title                                    : Ingles-AC3
    Language                                 : English
    Service kind                             : Complete Main
    Default                                  : No
    Forced                                   : No
    Statistics Tags Issue                    : mkvmerge v15.0.0 ('Duel with the Devil') 64-bit 2017-11-19 06:19:36 / mkvmerge v15.0.0 ('Duel with the Devil') 64-bit 2017-11-19 06:19:36 / UTC 2017-11-18T07:00:01Z
    FromStats_BitRate                        : 640000
    FromStats_Duration                       : 00:47:32.864000000
    FromStats_FrameCount                     : 89152
    FromStats_StreamSize                     : 228229120

    Text
    ID                                       : 4
    Format                                   : UTF-8
    Codec ID                                 : S_TEXT/UTF8
    Codec ID/Info                            : UTF-8 Plain Text
    Language                                 : Spanish
    Default                                  : No
    Forced                                   : No
    Statistics Tags Issue                    : mkvmerge v15.0.0 ('Duel with the Devil') 64-bit 2017-11-19 06:19:36 / mkvmerge v15.0.0 ('Duel with the Devil') 64-bit 2017-11-19 06:19:36 / UTC 2017-11-18T07:00:01Z
    FromStats_BitRate                        : 58
    FromStats_Duration                       : 00:45:45.329000000
    FromStats_FrameCount                     : 630
    FromStats_StreamSize                     : 20243

  • Peso: Aproximadamente 2GB X Capitulo

Sinopsis

A raíz de la desaparición de un niño, un pueblo desvela un misterio relacionado con experimentos secretos, fuerzas sobrenaturales aterradoras y una niña muy extraña.

Ficha técnica

Video trailer de la película

Enlaces de descarga

Rip de Bluray

Descargar Stranger Things (2016) Primera Temporada Full 1080p Latino




Aportes de DPeliculasHDmega la pass es:dpeliculashdmega.org Aportes de CinemaniaHD la pass es:cinemaniahdd.com

Películas relacionadas

  • Tully (2018) 1080p Latino

    2018
    Tully (2018) 1080p Latino

    0.0 1 h 35 min 2018

    La historia de una mujer con tres hijos que, incapaz de lidiar con su bebé recién nacido, contrata...

    Director: Jason Reitman

    Género: Comedia

    Actores: Stormy Ent

  • Si solo pudiera imaginar (2018) Full 1080p Latino

    2018
    Si solo pudiera imaginar (2018) Full 1080p Latino

    4.8 1 h 50 min 2018

    La historia real de la aclamada canción "I Can Only Imagine", la canción cristiana contemporánea más...

    Director: Jon Erwin

    Género: Drama

    Actores: Trace Adkins

  • El Justiciero (2014) Full 1080p Latino

    2014
    El Justiciero (2014) Full 1080p Latino

    4.3 2 h 12 min 2014

    Robert McCall, un antiguo agente de la CIA que lleva ahora una vida tranquila, abandona su retiro para...

    Director: Deirdre Horgan

    Género: Acción

    Actores: Yan Dron

Comentarios 17
  • David - 26 diciembre, 2017

    cual es la contraseña??? no la encuentro.

    • Dpelis2 - 26 diciembre, 2017

      dpeliculashdmega.org

  • Jhefferson - 28 noviembre, 2017

    Muchas gracias descargare esta ahora mismo y luego seguire con la segunda excelente aporte como siempre en la mejor calidad 😀

  • k4roso - 24 noviembre, 2017

    PARA CUANDO LA 2da TEMPORADA??

    • Dpelis2 - 24 noviembre, 2017

      Ya esta publicada…

  • rodrigolofonte - 24 noviembre, 2017

    muchas gracias por la primer temporada, pero la fuente de video es el bluray pues creo q salio a mediados de octubre segun bluray.com o es web-dl?

    • Dpelis2 - 24 noviembre, 2017

      Es del BluRay.

  • diestermilan - 23 noviembre, 2017

    No puedo descomprimir!!!!
    Probé con ambas contraseñas.
    Ayudaaaaa!!!

    • diestermilan - 23 noviembre, 2017

      Descomprimido! Lo siento, fue un problema con el WinRar.

  • k4roso - 22 noviembre, 2017

    donde descargo todos los capítulos…. ????????????? hace tiempo hice el pedido de mama se fue de viaje y no pasa nada.. necesito cine argentino.. gracias saludos

    • dpelis - 23 noviembre, 2017

      no encontramos esa pelicula, ademas peliculas como esa muy dificil de encontrar, nos basamos mas en peliculas de otros paises

      • k4roso - 23 noviembre, 2017

        GRACIAS QUERIDO.. IGUAL TE LAS ENCARGO

  • josue joel gomez chua - 21 noviembre, 2017

    subiran la temporada 2 en portada gris ?

    • Dpelis2 - 21 noviembre, 2017

      Cuando salga el BluRay si…

  • iDeztrukxion - 19 noviembre, 2017

    excelente! así ya no tendré que pagar para verla en netflix xD

  • jose - 19 noviembre, 2017

    subirás mas series de netflix??

    • Dpelis2 pelis2 - 19 noviembre, 2017

      Esa es la idea… Saludos