Star Wars Los últimos Jedi (2017) Full 1080p Latino

2.300 vistas
1 estrella2 estrellas3 estrellas4 estrellas5 estrellas (3 votos, promedio: 2,33 de 5)
Cargando…

Información de Star Wars Los últimos Jedi (2017) Full 1080p Latino

Datos de la película

  • Calidad: Full 1080p
  • Audio: Español Latino AC3 5.1 BLURAY - Ingles DTS 5.1 BLURAY
  • Subtitulos: Español Latino PGS - Ingles PGS
  • Resolución: 1920x1080p
  • Formato: MKV
  • Codec: H.264
  • Encoder: Dracarys
  • Mediainfo: Clic para Mostrar Datos Ver
  • Format                                   : Matroska
    Format version                           : Version 4 / Version 2
    File size                                : 8.31 GiB
    Duration                                 : 2 h 31 min
    Overall bit rate                         : 7 834 kb/s
    Movie name                               : CinemaniaHDD.com
    Encoded date                             : UTC 2018-03-31 00:21:37 / UTC 2018-03-30T02:45:47Z
    Writing application                      : mkvmerge v15.0.0 ('Duel with the Devil') 64-bit
    Writing library                          : libebml v1.3.5 + libmatroska v1.4.5 / Lavf57.7.2

    Video
    ID                                       : 1
    Format                                   : AVC
    Format/Info                              : Advanced Video Codec
    Format profile                           : High@L4.1
    Format settings                          : CABAC / 4 Ref Frames
    Format settings, CABAC                   : Yes
    Format settings, RefFrames               : 4 frames
    Codec ID                                 : V_MPEG4/ISO/AVC
    Duration                                 : 2 h 31 min
    Bit rate                                 : 5 529 kb/s
    Width                                    : 1 920 pixels
    Height                                   : 1 080 pixels
    Display aspect ratio                     : 16:9
    Frame rate mode                          : Constant
    Frame rate                               : 23.976 (24000/1001) FPS
    Color space                              : YUV
    Chroma subsampling                       : 4:2:0
    Bit depth                                : 8 bits
    Scan type                                : Progressive
    Bits/(Pixel*Frame)                       : 0.111
    Stream size                              : 5.86 GiB (71%)
    Title                                    : Star Wars Los últimos Jedi (2017) Full 1080p Latino
    Writing library                          : x264 core 148 r2708 86b7198
    Encoding settings                        : cabac=1 / ref=4 / deblock=1:0:0 / analyse=0x3:0x133 / me=esa / subme=9 / psy=1 / psy_rd=1.00:0.00 / mixed_ref=1 / me_range=16 / chroma_me=1 / trellis=2 / 8x8dct=1 / cqm=0 / deadzone=21,11 / fast_pskip=1 / chroma_qp_offset=-2 / threads=34 / lookahead_threads=2 / sliced_threads=0 / nr=0 / decimate=1 / interlaced=0 / bluray_compat=0 / constrained_intra=0 / bframes=3 / b_pyramid=2 / b_adapt=2 / b_bias=0 / direct=3 / weightb=1 / open_gop=0 / weightp=2 / keyint=240 / keyint_min=24 / scenecut=40 / intra_refresh=0 / rc_lookahead=60 / rc=crf / mbtree=1 / crf=20.0 / qcomp=0.60 / qpmin=0 / qpmax=69 / qpstep=4 / vbv_maxrate=62500 / vbv_bufsize=78125 / crf_max=0.0 / nal_hrd=none / filler=0 / ip_ratio=1.40 / aq=1:1.00
    Language                                 : English
    Default                                  : Yes
    Forced                                   : No
    Color range                              : Limited
    Color primaries                          : BT.709
    Transfer characteristics                 : BT.709
    Matrix coefficients                      : BT.709
    Statistics Tags Issue                    : mkvmerge v15.0.0 ('Duel with the Devil') 64-bit 2018-03-31 00:21:37 / mkvmerge v15.0.0 ('Duel with the Devil') 64-bit 2018-03-31 00:21:37 / UTC 2018-03-30T02:45:47Z
    FromStats_BitRate                        : 5664515
    FromStats_Duration                       : 02:31:51.603000000
    FromStats_FrameCount                     : 218460
    FromStats_StreamSize                     : 6451602532

    Audio #1
    ID                                       : 2
    Format                                   : AC-3
    Format/Info                              : Audio Coding 3
    Format settings, Endianness              : Big
    Codec ID                                 : A_AC3
    Duration                                 : 2 h 31 min
    Bit rate mode                            : Constant
    Bit rate                                 : 640 kb/s
    Channel(s)                               : 6 channels
    Channel positions                        : Front: L C R, Side: L R, LFE
    Sampling rate                            : 48.0 kHz
    Frame rate                               : 31.250 FPS (1536 SPF)
    Bit depth                                : 16 bits
    Compression mode                         : Lossy
    Stream size                              : 695 MiB (8%)
    Language                                 : Spanish
    Service kind                             : Complete Main
    Default                                  : Yes
    Forced                                   : No
    Statistics Tags Issue                    : mkvmerge v15.0.0 ('Duel with the Devil') 64-bit 2018-03-31 00:21:37 / mkvmerge v15.0.0 ('Duel with the Devil') 64-bit 2018-03-31 00:21:37 / UTC 2018-03-30T02:45:47Z
    FromStats_BitRate                        : 640000
    FromStats_Duration                       : 02:31:51.616000000
    FromStats_FrameCount                     : 284738
    FromStats_StreamSize                     : 728929280

    Audio #2
    ID                                       : 3
    Format                                   : DTS
    Format/Info                              : Digital Theater Systems
    Mode                                     : 16
    Format settings, Endianness              : Big
    Codec ID                                 : A_DTS
    Duration                                 : 2 h 31 min
    Bit rate mode                            : Constant
    Bit rate                                 : 1 509 kb/s
    Channel(s)                               : 6 channels
    Channel positions                        : Front: L C R, Side: L R, LFE
    Sampling rate                            : 48.0 kHz
    Frame rate                               : 93.750 FPS (512 SPF)
    Bit depth                                : 24 bits
    Compression mode                         : Lossy
    Stream size                              : 1.60 GiB (19%)
    Language                                 : English
    Default                                  : No
    Forced                                   : No
    Statistics Tags Issue                    : mkvmerge v15.0.0 ('Duel with the Devil') 64-bit 2018-03-31 00:21:37 / mkvmerge v15.0.0 ('Duel with the Devil') 64-bit 2018-03-31 00:21:37 / UTC 2018-03-30T02:45:47Z
    FromStats_BitRate                        : 1508999
    FromStats_Duration                       : 02:31:51.606000000
    FromStats_FrameCount                     : 854213
    FromStats_StreamSize                     : 1718676556

    Text #1
    ID                                       : 4
    Format                                   : PGS
    Muxing mode                              : zlib
    Codec ID                                 : S_HDMV/PGS
    Codec ID/Info                            : Picture based subtitle format used on BDs/HD-DVDs
    Language                                 : English
    Default                                  : No
    Forced                                   : No
    Statistics Tags Issue                    : mkvmerge v15.0.0 ('Duel with the Devil') 64-bit 2018-03-31 00:21:37 / mkvmerge v15.0.0 ('Duel with the Devil') 64-bit 2018-03-31 00:21:37 / UTC 2018-03-30T02:45:47Z
    FromStats_BitRate                        : 31027
    FromStats_Duration                       : 02:23:23.020000000
    FromStats_FrameCount                     : 3796
    FromStats_StreamSize                     : 33366586

    Text #2
    ID                                       : 5
    Format                                   : PGS
    Muxing mode                              : zlib
    Codec ID                                 : S_HDMV/PGS
    Codec ID/Info                            : Picture based subtitle format used on BDs/HD-DVDs
    Language                                 : Spanish
    Default                                  : No
    Forced                                   : No
    Statistics Tags Issue                    : mkvmerge v15.0.0 ('Duel with the Devil') 64-bit 2018-03-31 00:21:37 / mkvmerge v15.0.0 ('Duel with the Devil') 64-bit 2018-03-31 00:21:37 / UTC 2018-03-30T02:45:47Z
    FromStats_BitRate                        : 25710
    FromStats_Duration                       : 02:22:40.561000000
    FromStats_FrameCount                     : 3181
    FromStats_StreamSize                     : 27511633

    Menu
    00:00:00.000                             : :Chapter 1
    00:00:18.644                             : :Chapter 2
    00:01:44.813                             : :Chapter 3
    00:03:11.817                             : :Chapter 4
    00:07:43.296                             : :Chapter 5
    00:12:48.434                             : :Chapter 6
    00:13:44.574                             : :Chapter 7
    00:16:29.280                             : :Chapter 8
    00:19:59.281                             : :Chapter 9
    00:22:51.370                             : :Chapter 10
    00:26:04.980                             : :Chapter 11
    00:27:22.516                             : :Chapter 12
    00:31:24.758                             : :Chapter 13
    00:32:54.681                             : :Chapter 14
    00:35:27.667                             : :Chapter 15
    00:38:11.498                             : :Chapter 16
    00:41:53.428                             : :Chapter 17
    00:44:29.542                             : :Chapter 18
    00:46:51.475                             : :Chapter 19
    00:51:41.932                             : :Chapter 20
    00:53:50.060                             : :Chapter 21
    00:55:41.505                             : :Chapter 22
    00:57:39.581                             : :Chapter 23
    00:59:16.636                             : :Chapter 24
    01:02:05.847                             : :Chapter 25
    01:03:07.701                             : :Chapter 26
    01:05:41.729                             : :Chapter 27
    01:07:03.478                             : :Chapter 28
    01:10:25.722                             : :Chapter 29
    01:13:30.323                             : :Chapter 30
    01:17:43.450                             : :Chapter 31
    01:20:53.057                             : :Chapter 32
    01:24:17.970                             : :Chapter 33
    01:26:23.220                             : :Chapter 34
    01:27:59.524                             : :Chapter 35
    01:30:49.361                             : :Chapter 36
    01:32:54.569                             : :Chapter 37
    01:35:53.706                             : :Chapter 38
    01:37:10.616                             : :Chapter 39
    01:39:12.864                             : :Chapter 40
    01:42:07.663                             : :Chapter 41
    01:45:03.714                             : :Chapter 42
    01:49:35.694                             : :Chapter 43
    01:52:20.609                             : :Chapter 44
    01:56:04.749                             : :Chapter 45
    01:58:52.083                             : :Chapter 46
    02:03:11.134                             : :Chapter 47
    02:06:39.759                             : :Chapter 48
    02:11:43.604                             : :Chapter 49
    02:15:12.104                             : :Chapter 50
    02:20:16.700                             : :Chapter 51
    02:23:39.694                             : :Chapter 52

  • Peso: 8.31 GiB

Sinopsis

La fuerza siente un cambio y los Maestros Jedi saben que es el momento de regresar. La galaxia se encuentra perdida y separada, y deberán unir fuerzas si no quieren que sea el fin de la paz. Con el rumor de una guerra, los pocos aliados que quedan emprenderán la búsqueda para aumentar sus aliados, mientras se enfrentan a la desconfianza y el temor de aquellos que no olvidan ni perdonan. Mundos casi olvidados, personajes misteriosos y viejas caras conocidas, una nueva aventura está a punto de comenzar para mantener la frágil supervivencia de La República, mientras se preparan para lo que está por llegar.

 

Esta versión Cuanta con la Intro en Latino

Ficha técnica

Video trailer de la película

Enlaces de descarga

Rip de Bluray

Descargar Star Wars Los últimos Jedi (2017) Full 1080p Latino




Aportes de DPeliculasHDmega la pass es:dpeliculashdmega.org Aportes de CinemaniaHD la pass es:cinemaniahdd.com

Películas relacionadas

  • Occupation (2018) WEBDL 1080p Subtitulada

    2018
    Occupation (2018) WEBDL 1080p Subtitulada

    0.0 1h 59m 2018

    El film se centra en un grupo de civiles que ven como su pequeño pueblo en Australia es aniquilado por...

    Director: Luke Sparke

    Género: Acción

    Actores: Temuera Morrison

  • Si solo pudiera imaginar (2018) Full 1080p Latino

    2018
    Si solo pudiera imaginar (2018) Full 1080p Latino

    5.0 1 h 50 min 2018

    La historia real de la aclamada canción "I Can Only Imagine", la canción cristiana contemporánea más...

    Director: Jon Erwin

    Género: Drama

    Actores: Trace Adkins

  • El Justiciero (2014) Full 1080p Latino

    2014
    El Justiciero (2014) Full 1080p Latino

    4.0 2 h 12 min 2014

    Robert McCall, un antiguo agente de la CIA que lleva ahora una vida tranquila, abandona su retiro para...

    Director: Deirdre Horgan

    Género: Acción

    Actores: Yan Dron

Comentarios 2
  • ApocalipseOne - 04 junio, 2018

    Enlaces caídos, podrías volver a subir los archivos, gracias.