Soñadoras (2006) Full 1080p Latino

730 vistas
1 estrella2 estrellas3 estrellas4 estrellas5 estrellas (2 votos, promedio: 5,00 de 5)
Cargando…

Información de Soñadoras (2006) Full 1080p Latino

Datos de la película

  • Calidad: Full 1080p
  • Audio: Español Latino AC3 5.1 BLURAY - Ingles AC3 5.1 BLURAY
  • Subtitulos: Español Latino PGS - Ingles PGS
  • Resolución: 1920x1080p
  • Formato: MKV
  • Codec: H.264
  • Encoder: Dracarys
  • Mediainfo: Clic para Mostrar Datos Ver
  • Format                                   : Matroska
    Format version                           : Version 4 / Version 2
    File size                                : 6.90 GiB
    Duration                                 : 2 h 10 min
    Overall bit rate                         : 7 589 kb/s
    Movie name                               : CinemaniaHDD.com
    Encoded date                             : UTC 2018-05-16 21:39:51 / UTC 2018-05-16T07:31:01Z
    Writing application                      : mkvmerge v15.0.0 ('Duel with the Devil') 64-bit
    Writing library                          : libebml v1.3.5 + libmatroska v1.4.5 / Lavf57.7.2

    Video
    ID                                       : 1
    Format                                   : AVC
    Format/Info                              : Advanced Video Codec
    Format profile                           : High@L4.1
    Format settings                          : CABAC / 4 Ref Frames
    Format settings, CABAC                   : Yes
    Format settings, RefFrames               : 4 frames
    Codec ID                                 : V_MPEG4/ISO/AVC
    Duration                                 : 2 h 10 min
    Bit rate                                 : 6 158 kb/s
    Width                                    : 1 920 pixels
    Height                                   : 1 080 pixels
    Display aspect ratio                     : 16:9
    Frame rate mode                          : Constant
    Frame rate                               : 23.976 (24000/1001) FPS
    Color space                              : YUV
    Chroma subsampling                       : 4:2:0
    Bit depth                                : 8 bits
    Scan type                                : Progressive
    Bits/(Pixel*Frame)                       : 0.124
    Stream size                              : 5.60 GiB (81%)
    Title                                    : Soñadoras (2006) Full 1080p Latino
    Writing library                          : x264 core 148 r2708 86b7198
    Encoding settings                        : cabac=1 / ref=4 / deblock=1:0:0 / analyse=0x3:0x133 / me=esa / subme=9 / psy=1 / psy_rd=1.00:0.00 / mixed_ref=1 / me_range=16 / chroma_me=1 / trellis=2 / 8x8dct=1 / cqm=0 / deadzone=21,11 / fast_pskip=1 / chroma_qp_offset=-2 / threads=34 / lookahead_threads=2 / sliced_threads=0 / nr=0 / decimate=1 / interlaced=0 / bluray_compat=0 / constrained_intra=0 / bframes=3 / b_pyramid=2 / b_adapt=2 / b_bias=0 / direct=3 / weightb=1 / open_gop=0 / weightp=2 / keyint=240 / keyint_min=24 / scenecut=40 / intra_refresh=0 / rc_lookahead=60 / rc=crf / mbtree=1 / crf=20.0 / qcomp=0.60 / qpmin=0 / qpmax=69 / qpstep=4 / vbv_maxrate=62500 / vbv_bufsize=78125 / crf_max=0.0 / nal_hrd=none / filler=0 / ip_ratio=1.40 / aq=1:1.00
    Language                                 : English
    Default                                  : Yes
    Forced                                   : No
    Color range                              : Limited
    Color primaries                          : BT.709
    Transfer characteristics                 : BT.709
    Matrix coefficients                      : BT.709
    Statistics Tags Issue                    : mkvmerge v15.0.0 ('Duel with the Devil') 64-bit 2018-05-16 21:39:51 / mkvmerge v15.0.0 ('Duel with the Devil') 64-bit 2018-05-16 21:39:51 / UTC 2018-05-16T07:31:01Z
    FromStats_BitRate                        : 6280466
    FromStats_Duration                       : 02:10:12.013000000
    FromStats_FrameCount                     : 187301
    FromStats_StreamSize                     : 6132885880

    Audio #1
    ID                                       : 2
    Format                                   : AC-3
    Format/Info                              : Audio Coding 3
    Format settings, Endianness              : Big
    Codec ID                                 : A_AC3
    Duration                                 : 2 h 10 min
    Bit rate mode                            : Constant
    Bit rate                                 : 640 kb/s
    Channel(s)                               : 6 channels
    Channel positions                        : Front: L C R, Side: L R, LFE
    Sampling rate                            : 48.0 kHz
    Frame rate                               : 31.250 FPS (1536 SPF)
    Bit depth                                : 16 bits
    Compression mode                         : Lossy
    Stream size                              : 596 MiB (8%)
    Language                                 : Spanish
    Service kind                             : Complete Main
    Default                                  : Yes
    Forced                                   : No
    Statistics Tags Issue                    : mkvmerge v15.0.0 ('Duel with the Devil') 64-bit 2018-05-16 21:39:51 / mkvmerge v15.0.0 ('Duel with the Devil') 64-bit 2018-05-16 21:39:51 / UTC 2018-05-16T07:31:01Z
    FromStats_BitRate                        : 640000
    FromStats_Duration                       : 02:10:12.032000000
    FromStats_FrameCount                     : 244126
    FromStats_StreamSize                     : 624962560

    Audio #2
    ID                                       : 3
    Format                                   : AC-3
    Format/Info                              : Audio Coding 3
    Format settings, Endianness              : Big
    Codec ID                                 : A_AC3
    Duration                                 : 2 h 10 min
    Bit rate mode                            : Constant
    Bit rate                                 : 640 kb/s
    Channel(s)                               : 6 channels
    Channel positions                        : Front: L C R, Side: L R, LFE
    Sampling rate                            : 48.0 kHz
    Frame rate                               : 31.250 FPS (1536 SPF)
    Bit depth                                : 16 bits
    Compression mode                         : Lossy
    Stream size                              : 596 MiB (8%)
    Language                                 : English
    Service kind                             : Complete Main
    Default                                  : No
    Forced                                   : No
    Statistics Tags Issue                    : mkvmerge v15.0.0 ('Duel with the Devil') 64-bit 2018-05-16 21:39:51 / mkvmerge v15.0.0 ('Duel with the Devil') 64-bit 2018-05-16 21:39:51 / UTC 2018-05-16T07:31:01Z
    FromStats_BitRate                        : 640000
    FromStats_Duration                       : 02:10:12.032000000
    FromStats_FrameCount                     : 244126
    FromStats_StreamSize                     : 624962560

    Text #1
    ID                                       : 4
    Format                                   : PGS
    Muxing mode                              : zlib
    Codec ID                                 : S_HDMV/PGS
    Codec ID/Info                            : Picture based subtitle format used on BDs/HD-DVDs
    Language                                 : English
    Default                                  : No
    Forced                                   : No
    Statistics Tags Issue                    : mkvmerge v15.0.0 ('Duel with the Devil') 64-bit 2018-05-16 21:39:51 / mkvmerge v15.0.0 ('Duel with the Devil') 64-bit 2018-05-16 21:39:51 / UTC 2018-05-16T07:31:01Z
    FromStats_BitRate                        : 46559
    FromStats_Duration                       : 01:59:19.152000000
    FromStats_FrameCount                     : 3688
    FromStats_StreamSize                     : 41666025

    Text #2
    ID                                       : 5
    Format                                   : PGS
    Muxing mode                              : zlib
    Codec ID                                 : S_HDMV/PGS
    Codec ID/Info                            : Picture based subtitle format used on BDs/HD-DVDs
    Language                                 : Spanish
    Default                                  : No
    Forced                                   : No
    Statistics Tags Issue                    : mkvmerge v15.0.0 ('Duel with the Devil') 64-bit 2018-05-16 21:39:51 / mkvmerge v15.0.0 ('Duel with the Devil') 64-bit 2018-05-16 21:39:51 / UTC 2018-05-16T07:31:01Z
    FromStats_BitRate                        : 40188
    FromStats_Duration                       : 01:59:19.068000000
    FromStats_FrameCount                     : 3620
    FromStats_StreamSize                     : 35963858

    Menu
    00:00:00.000                             : :Chapter 1
    00:06:59.711                             : :Chapter 2
    00:14:13.353                             : :Chapter 3
    00:19:28.084                             : :Chapter 4
    00:26:58.826                             : :Chapter 5
    00:32:09.010                             : :Chapter 6
    00:39:12.141                             : :Chapter 7
    00:42:55.656                             : :Chapter 8
    00:48:46.257                             : :Chapter 9
    00:53:30.332                             : :Chapter 10
    00:56:47.154                             : :Chapter 11
    01:02:21.238                             : :Chapter 12
    01:07:29.087                             : :Chapter 13
    01:09:06.601                             : :Chapter 14
    01:12:28.928                             : :Chapter 15
    01:18:13.397                             : :Chapter 16
    01:23:58.242                             : :Chapter 17
    01:29:48.592                             : :Chapter 18
    01:36:16.729                             : :Chapter 19
    01:39:10.194                             : :Chapter 20
    01:43:40.381                             : :Chapter 21
    01:49:40.491                             : :Chapter 22
    01:54:14.765                             : :Chapter 23
    01:57:27.624                             : :Chapter 24
    02:00:35.270                             : :Chapter 25

  • Peso: 6.90 GiB

Sinopsis

Ambientada en los años sesenta y setenta, narra La historia de del ascenso de un trío de mujeres: Effie, Deena y Lorrell, que han formado un grupo prometedor llamado The Dreamettes. El ambicioso agente Curtis Taylor (Jamie Foxx) las descubre durante un concurso musical, y les ofrece la oportunidad de su vida: hacer los coros para el famosísimo James “Thunder” Early (Eddie Murphy). Poco a poco, Curtis empieza a controlar el aspecto físico y la música de las chicas para acabar lanzándolas como The Dreams. Pero los focos no tardan en centrarse en Deena, olvidando e incluso apartando a la menos atractiva Effie. A pesar de que The Dreams se convierten en un auténtico fenómeno de costa a costa, no tardan en darse cuenta de que el precio de la fama y de la fortuna es mucho más elevado de lo que imaginaban…

Ficha técnica

Video trailer de la película

Enlaces de descarga

Rip de Bluray

Descargar Soñadoras (2006) Full 1080p Latino




Aportes de DPeliculasHDmega la pass es:dpeliculashdmega.org Aportes de CinemaniaHD la pass es:cinemaniahdd.com
Guardado en : Drama , FULL 1080p Plateadas

Películas relacionadas

Comentarios 0