Sleight (2017) 1080p Latino

2.394 vistas
1 estrella2 estrellas3 estrellas4 estrellas5 estrellas (Ninguna valoración todavía)
Cargando…

Información de Sleight (2017) 1080p Latino

Datos de la película

  • Calidad: 1080p
  • Audio: Español Latino AC3 2.0 Capturado - Ingles AC3 5.1 BLURAY
  • Subtitulos: Español Latino SRT
  • Resolución: 1920x800p
  • Formato: MKV
  • Codec: H.264
  • Encoder: Dpelis
  • Mediainfo: Clic para Mostrar Datos Ver
  • Sleight (2016) 1080p Latino.mkv
    Format                      : Matroska
    Format version              : Version 4 / Version 2
    File size                   : 2.54 GiB
    Duration                    : 1 h 30 min
    Overall bit rate            : 4 016 kb/s
    Movie name                  : DPeliculasHDMega.ORG
    Encoded date                : UTC 2017-09-27 13:44:50 / UTC 2017-09-27T12:38:46Z
    Writing application         : mkvmerge v10.0.0 ('To Drown In You') 64bit
    Writing library             : libebml v1.3.4 + libmatroska v1.4.5 / Lavf57.7.2

    Video
    ID                          : 1
    Format                      : AVC
    Format/Info                 : Advanced Video Codec
    Format profile              : High@L4.1
    Format settings, CABAC      : Yes
    Format settings, RefFrames  : 4 frames
    Codec ID                    : V_MPEG4/ISO/AVC
    Duration                    : 1 h 30 min
    Bit rate                    : 3 500 kb/s
    Width                       : 1 920 pixels
    Height                      : 800 pixels
    Display aspect ratio        : 2.40:1
    Frame rate mode             : Constant
    Frame rate                  : 23.976 (24000/1001) FPS
    Color space                 : YUV
    Chroma subsampling          : 4:2:0
    Bit depth                   : 8 bits
    Scan type                   : Progressive
    Bits/(Pixel*Frame)          : 0.095
    Stream size                 : 2.13 GiB (84%)
    Writing library             : x264 core 148 r2708 86b7198
    Encoding settings           : cabac=1 / ref=3 / deblock=1:0:0 / analyse=0x3:0x113 / me=hex / subme=7 / psy=1 / psy_rd=1.00:0.00 / mixed_ref=1 / me_range=16 / chroma_me=1 / trellis=1 / 8x8dct=1 / cqm=0 / deadzone=21,11 / fast_pskip=1 / chroma_qp_offset=-2 / threads=12 / lookahead_threads=2 / sliced_threads=0 / nr=0 / decimate=1 / interlaced=0 / bluray_compat=0 / constrained_intra=0 / bframes=3 / b_pyramid=2 / b_adapt=1 / b_bias=0 / direct=1 / weightb=1 / open_gop=0 / weightp=2 / keyint=240 / keyint_min=24 / scenecut=40 / intra_refresh=0 / rc_lookahead=40 / rc=2pass / mbtree=1 / bitrate=3500 / ratetol=1.0 / qcomp=0.60 / qpmin=0 / qpmax=69 / qpstep=4 / cplxblur=20.0 / qblur=0.5 / vbv_maxrate=62500 / vbv_bufsize=78125 / nal_hrd=none / filler=0 / ip_ratio=1.40 / aq=1:1.00
    Default                     : Yes
    Forced                      : No
    Color range                 : Limited
    Color primaries             : BT.709
    Transfer characteristics    : BT.709
    Matrix coefficients         : BT.709
    Statistics Tags Issue       : mkvmerge v10.0.0 ('To Drown In You') 64bit 2017-09-27 13:44:50 / mkvmerge v10.0.0 ('To Drown In You') 64bit 2017-09-27 13:44:50 / UTC 2017-09-27T12:38:46Z
    FromStats_BitRate           : 3498544
    FromStats_Duration          : 01:29:16.393000000
    FromStats_FrameCount        : 128425
    FromStats_StreamSize        : 2342447424

    Audio #1
    ID                          : 2
    Format                      : AC-3
    Format/Info                 : Audio Coding 3
    Format settings, Endianness : Big
    Codec ID                    : A_AC3
    Duration                    : 1 h 30 min
    Bit rate mode               : Constant
    Bit rate                    : 192 kb/s
    Channel(s)                  : 2 channels
    Channel positions           : Front: L R
    Sampling rate               : 48.0 kHz
    Frame rate                  : 31.250 FPS (1536 SPF)
    Bit depth                   : 16 bits
    Compression mode            : Lossy
    Delay relative to video     : -5 ms
    Stream size                 : 125 MiB (5%)
    Language                    : Spanish
    Service kind                : Complete Main
    Default                     : Yes
    Forced                      : No
    Statistics Tags Issue       : mkvmerge v10.0.0 ('To Drown In You') 64bit 2017-09-27 13:44:50 / mkvmerge v10.0.0 ('To Drown In You') 64bit 2017-09-27 13:44:50 / UTC 2017-09-27T12:38:46Z
    FromStats_BitRate           : 192000
    FromStats_Duration          : 01:30:41.152000000
    FromStats_FrameCount        : 170036
    FromStats_StreamSize        : 130587648

    Audio #2
    ID                          : 3
    Format                      : AC-3
    Format/Info                 : Audio Coding 3
    Format settings, Endianness : Big
    Codec ID                    : A_AC3
    Duration                    : 1 h 30 min
    Bit rate mode               : Constant
    Bit rate                    : 384 kb/s
    Channel(s)                  : 6 channels
    Channel positions           : Front: L C R, Side: L R, LFE
    Sampling rate               : 48.0 kHz
    Frame rate                  : 31.250 FPS (1536 SPF)
    Bit depth                   : 16 bits
    Compression mode            : Lossy
    Delay relative to video     : -5 ms
    Stream size                 : 249 MiB (10%)
    Title                       : Surround
    Language                    : English
    Service kind                : Complete Main
    Default                     : No
    Forced                      : No
    Statistics Tags Issue       : mkvmerge v10.0.0 ('To Drown In You') 64bit 2017-09-27 13:44:50 / mkvmerge v10.0.0 ('To Drown In You') 64bit 2017-09-27 13:44:50 / UTC 2017-09-27T12:38:46Z
    FromStats_BitRate           : 384000
    FromStats_Duration          : 01:29:16.384000000
    FromStats_FrameCount        : 167387
    FromStats_StreamSize        : 257106432

    Text
    ID                          : 4
    Format                      : UTF-8
    Codec ID                    : S_TEXT/UTF8
    Codec ID/Info               : UTF-8 Plain Text
    Language                    : Spanish
    Default                     : No
    Forced                      : No
    Statistics Tags Issue       : mkvmerge v10.0.0 ('To Drown In You') 64bit 2017-09-27 13:44:50 / mkvmerge v10.0.0 ('To Drown In You') 64bit 2017-09-27 13:44:50 / UTC 2017-09-27T12:38:46Z
    FromStats_BitRate           : 44
    FromStats_Duration          : 01:24:00.807000000
    FromStats_FrameCount        : 941
    FromStats_StreamSize        : 28278

    Menu
    00:00:00.000                : :Chapter 1
    00:05:06.097                : :Chapter 2
    00:11:20.847                : :Chapter 3
    00:14:06.012                : :Chapter 4
    00:18:15.553                : :Chapter 5
    00:24:13.410                : :Chapter 6
    00:28:46.934                : :Chapter 7
    00:34:23.728                : :Chapter 8
    00:38:57.210                : :Chapter 9
    00:43:32.819                : :Chapter 10
    00:49:00.521                : :Chapter 11
    00:51:59.283                : :Chapter 12
    00:53:57.651                : :Chapter 13
    00:59:05.834                : :Chapter 14
    01:05:31.928                : :Chapter 15
    01:09:55.274                : :Chapter 16
    01:13:27.111                : :Chapter 17
    01:15:21.392                : :Chapter 18
    01:22:06.630                : :Chapter 19
    01:24:44.413                : :Chapter 20

  • Peso: 2.54 GB

Sinopsis

Un joven mago callejero de Los Angeles se ve obligado a cuidar de su hermana pequeña después de la muerte de su madre, por lo que decide hacerse traficante de drogas. Cuando se mete en problemas con su proveedor, su hermana es secuestrada y se ve obligado a confiar en su habilidad con las manos y en su mente brillante para intentar salvarla.

Ficha técnica

Video trailer de la película

Enlaces de descarga

Rip de Bluray

Descargar Sleight (2017) 1080p Latino




Aportes de DPeliculasHDmega la pass es:dpeliculashdmega.org Aportes de CinemaniaHD la pass es:cinemaniahdd.com
Guardado en : Acción , Ciencia ficción , Drama , Suspense

Películas relacionadas

  • Paciente Cero (2018) Full 1080p Latino

    2018
    Paciente Cero (2018) Full 1080p Latino

    5.0 1h 26m 2018

    Paciente Cero (2018) Full 1080p Latino; Mega, Google Drive. Tras una pandemia sin precedentes, la Humanidad...

    Director: Stefan Ruzowitzky

    Género: Acción

    Actores: Yumiko Hanasaka

  • Paciente Cero (2018) 1080p Latino

    2018
    Paciente Cero (2018) 1080p Latino

    0.0 1h 26m 2018

    Descargar Paciente Cero (2018) 1080p Latino; Mega, Google Drive. Tras una pandemia sin precedentes, la...

    Director: Stefan Ruzowitzky

    Género: Acción

    Actores: Yumiko Hanasaka

  • El espia que me planto (2018) 1080p Latino

    2018
    El espia que me planto (2018) 1080p Latino

    5.0 1h 57m 2018

    Audrey (Mila Kunis) y Morgan (Kate McKinnon) son dos amigas que viven en Los Ángeles y que un día se...

    Director: Susanna Fogel

    Género: Acción

    Actores: Sam Heughan

Comentarios 3
  • seba - 15 octubre, 2017

    la subiran en gris ???

  • 5hhbgfd - 27 septiembre, 2017

    cuando suben la pelicula de vico c