Sherlock Gnomes (2018) Full 1080p Latino

1.094 vistas
1 estrella2 estrellas3 estrellas4 estrellas5 estrellas (3 votos, promedio: 2,00 de 5)
Cargando…

Información de Sherlock Gnomes (2018) Full 1080p Latino

Datos de la película

  • Calidad: Full 1080p
  • Audio: Español Latino AC3 5.1 BLURAY - Ingles DTS 5.1 BLURAY
  • Subtitulos: Español Latino PGS - Ingles PGS
  • Resolución: 1920x1080p
  • Formato: MKV
  • Codec: H.264
  • Encoder: Dracarys
  • Mediainfo: Clic para Mostrar Datos Ver
  • Format                                   : Matroska
    Format version                           : Version 4 / Version 2
    File size                                : 3.46 GiB
    Duration                                 : 1 h 26 min
    Overall bit rate                         : 5 732 kb/s
    Movie name                               : CinemaniaHDD.net
    Encoded date                             : UTC 2018-06-12 23:43:56 / UTC 2018-06-12T18:15:16Z
    Writing application                      : mkvmerge v15.0.0 ('Duel with the Devil') 64-bit
    Writing library                          : libebml v1.3.5 + libmatroska v1.4.5 / Lavf57.7.2

    Video
    ID                                       : 1
    Format                                   : AVC
    Format/Info                              : Advanced Video Codec
    Format profile                           : High@L4.1
    Format settings                          : CABAC / 4 Ref Frames
    Format settings, CABAC                   : Yes
    Format settings, RefFrames               : 4 frames
    Codec ID                                 : V_MPEG4/ISO/AVC
    Duration                                 : 1 h 26 min
    Bit rate                                 : 3 469 kb/s
    Width                                    : 1 920 pixels
    Height                                   : 1 080 pixels
    Display aspect ratio                     : 16:9
    Frame rate mode                          : Constant
    Frame rate                               : 23.976 (24000/1001) FPS
    Color space                              : YUV
    Chroma subsampling                       : 4:2:0
    Bit depth                                : 8 bits
    Scan type                                : Progressive
    Bits/(Pixel*Frame)                       : 0.070
    Stream size                              : 2.09 GiB (61%)
    Title                                    : Sherlock Gnomes (2018) Full 1080p Latino
    Writing library                          : x264 core 148 r2708 86b7198
    Encoding settings                        : cabac=1 / ref=4 / deblock=1:0:0 / analyse=0x3:0x133 / me=esa / subme=9 / psy=1 / psy_rd=1.00:0.00 / mixed_ref=1 / me_range=16 / chroma_me=1 / trellis=2 / 8x8dct=1 / cqm=0 / deadzone=21,11 / fast_pskip=1 / chroma_qp_offset=-2 / threads=34 / lookahead_threads=2 / sliced_threads=0 / nr=0 / decimate=1 / interlaced=0 / bluray_compat=0 / constrained_intra=0 / bframes=3 / b_pyramid=2 / b_adapt=2 / b_bias=0 / direct=3 / weightb=1 / open_gop=0 / weightp=2 / keyint=240 / keyint_min=24 / scenecut=40 / intra_refresh=0 / rc_lookahead=60 / rc=crf / mbtree=1 / crf=20.0 / qcomp=0.60 / qpmin=0 / qpmax=69 / qpstep=4 / vbv_maxrate=62500 / vbv_bufsize=78125 / crf_max=0.0 / nal_hrd=none / filler=0 / ip_ratio=1.40 / aq=1:1.00
    Language                                 : English
    Default                                  : Yes
    Forced                                   : No
    Color range                              : Limited
    Color primaries                          : BT.709
    Transfer characteristics                 : BT.709
    Matrix coefficients                      : BT.709
    Statistics Tags Issue                    : mkvmerge v15.0.0 ('Duel with the Devil') 64-bit 2018-06-12 23:43:56 / mkvmerge v15.0.0 ('Duel with the Devil') 64-bit 2018-06-12 23:43:56 / UTC 2018-06-12T18:15:16Z
    FromStats_BitRate                        : 3531738
    FromStats_Duration                       : 01:26:18.716000000
    FromStats_FrameCount                     : 124165
    FromStats_StreamSize                     : 2286233998

    Audio #1
    ID                                       : 2
    Format                                   : AC-3
    Format/Info                              : Audio Coding 3
    Format settings, Endianness              : Big
    Codec ID                                 : A_AC3
    Duration                                 : 1 h 26 min
    Bit rate mode                            : Constant
    Bit rate                                 : 640 kb/s
    Channel(s)                               : 6 channels
    Channel positions                        : Front: L C R, Side: L R, LFE
    Sampling rate                            : 48.0 kHz
    Frame rate                               : 31.250 FPS (1536 SPF)
    Bit depth                                : 16 bits
    Compression mode                         : Lossy
    Stream size                              : 395 MiB (11%)
    Language                                 : Spanish
    Service kind                             : Complete Main
    Default                                  : Yes
    Forced                                   : No
    Statistics Tags Issue                    : mkvmerge v15.0.0 ('Duel with the Devil') 64-bit 2018-06-12 23:43:56 / mkvmerge v15.0.0 ('Duel with the Devil') 64-bit 2018-06-12 23:43:56 / UTC 2018-06-12T18:15:16Z
    FromStats_BitRate                        : 640000
    FromStats_Duration                       : 01:26:18.720000000
    FromStats_FrameCount                     : 161835
    FromStats_StreamSize                     : 414297600

    Audio #2
    ID                                       : 3
    Format                                   : DTS
    Format/Info                              : Digital Theater Systems
    Mode                                     : 16
    Format settings, Endianness              : Big
    Codec ID                                 : A_DTS
    Duration                                 : 1 h 26 min
    Bit rate mode                            : Constant
    Bit rate                                 : 1 509 kb/s
    Channel(s)                               : 6 channels
    Channel positions                        : Front: L C R, Side: L R, LFE
    Sampling rate                            : 48.0 kHz
    Frame rate                               : 93.750 FPS (512 SPF)
    Bit depth                                : 24 bits
    Compression mode                         : Lossy
    Stream size                              : 932 MiB (26%)
    Language                                 : English
    Default                                  : No
    Forced                                   : No
    Statistics Tags Issue                    : mkvmerge v15.0.0 ('Duel with the Devil') 64-bit 2018-06-12 23:43:56 / mkvmerge v15.0.0 ('Duel with the Devil') 64-bit 2018-06-12 23:43:56 / UTC 2018-06-12T18:15:16Z
    FromStats_BitRate                        : 1508999
    FromStats_Duration                       : 01:26:18.710000000
    FromStats_FrameCount                     : 485504
    FromStats_StreamSize                     : 976834048

    Text #1
    ID                                       : 4
    Format                                   : PGS
    Muxing mode                              : zlib
    Codec ID                                 : S_HDMV/PGS
    Codec ID/Info                            : Picture based subtitle format used on BDs/HD-DVDs
    Language                                 : English
    Default                                  : No
    Forced                                   : No
    Statistics Tags Issue                    : mkvmerge v15.0.0 ('Duel with the Devil') 64-bit 2018-06-12 23:43:56 / mkvmerge v15.0.0 ('Duel with the Devil') 64-bit 2018-06-12 23:43:56 / UTC 2018-06-12T18:15:16Z
    FromStats_BitRate                        : 47345
    FromStats_Duration                       : 01:24:58.135000000
    FromStats_FrameCount                     : 2255
    FromStats_StreamSize                     : 30171634

    Text #2
    ID                                       : 5
    Format                                   : PGS
    Muxing mode                              : zlib
    Codec ID                                 : S_HDMV/PGS
    Codec ID/Info                            : Picture based subtitle format used on BDs/HD-DVDs
    Language                                 : Spanish
    Default                                  : No
    Forced                                   : No
    Statistics Tags Issue                    : mkvmerge v15.0.0 ('Duel with the Devil') 64-bit 2018-06-12 23:43:56 / mkvmerge v15.0.0 ('Duel with the Devil') 64-bit 2018-06-12 23:43:56 / UTC 2018-06-12T18:15:16Z
    FromStats_BitRate                        : 42453
    FromStats_Duration                       : 01:25:02.097000000
    FromStats_FrameCount                     : 2225
    FromStats_StreamSize                     : 27075460

    Menu
    00:00:00.000                             : :Chapter 1
    00:05:36.127                             : :Chapter 2
    00:10:49.941                             : :Chapter 3
    00:16:39.540                             : :Chapter 4
    00:24:05.945                             : :Chapter 5
    00:29:44.074                             : :Chapter 6
    00:35:39.512                             : :Chapter 7
    00:40:52.909                             : :Chapter 8
    00:45:41.530                             : :Chapter 9
    00:52:31.982                             : :Chapter 10
    00:58:28.797                             : :Chapter 11
    01:04:58.520                             : :Chapter 12
    01:10:40.069                             : :Chapter 13
    01:16:02.933                             : :Chapter 14
    01:17:55.171                             : :Chapter 15

  • Peso: 3.46 GiB

Sinopsis

El jardín de los gnomos, Gnomeo y Juliet recurren al reconocido detective Sherlock Gnomes para investigar la misteriosa desaparición de otros adornos de jardín.

Ficha técnica

Video trailer de la película

Enlaces de descarga

Rip de Bluray

Descargar Sherlock Gnomes (2018) Full 1080p Latino




Aportes de DPeliculasHDmega la pass es:dpeliculashdmega.org Aportes de CinemaniaHD la pass es:cinemaniahdd.com

Películas relacionadas

  • Sicario (2015) Full 1080p Latino

    2015
    Sicario (2015) Full 1080p Latino

    5.0 2h 1m 2015

    En la zona fronteriza que se extiende entre Estados Unidos y México la joven Kate Macer, una idealista...

    Director: Judi Townsend

    Género: Acción

    Actores: Victor Garber

  • Fahrenheit 451 (2018) Full 1080p Latino

    2018
    Fahrenheit 451 (2018) Full 1080p Latino

    5.0 1h 36m 2018

    Michael B. Jordan y Michael Shannon protagonizan esta adaptación de HBO de la clásica novela distópica...

    Director: Ramin Bahrani

    Género: Ciencia ficción

    Actores: Tim Post

Comentarios 1
  • Jonna - 14 junio, 2018

    Muchas gracias, se subirá la primera parte? Saludos 🙂