Rob Roy (1995) Full 1080p Latino

642 vistas
1 estrella2 estrellas3 estrellas4 estrellas5 estrellas (2 votos, promedio: 4,00 de 5)
Cargando…

Información de Rob Roy (1995) Full 1080p Latino

Datos de la película

  • Calidad: Full 1080p
  • Audio: Español Latino AC3 5.1 BLURAY - Ingles DTS 5.1 BLURAY
  • Subtitulos: Español Latino PGS - Ingles PGS
  • Resolución: 1920x1080p
  • Formato: MKV
  • Codec: H.264
  • Encoder: Dracarys
  • Mediainfo: Clic para Mostrar Datos Ver
  • Format                                   : Matroska
    Format version                           : Version 2
    File size                                : 9.06 GiB
    Duration                                 : 2 h 19 min
    Overall bit rate                         : 9 315 kb/s
    Movie name                               : CinemaniaHDD.net
    Encoded date                             : UTC 2018-07-05 10:28:08 / UTC 2018-07-04T03:57:06Z
    Writing application                      : mkvmerge v5.7.0 ('The Whirlwind') built on Jul  8 2012 20:08:51
    Writing library                          : libebml v1.2.3 + libmatroska v1.3.0 / Lavf57.7.2

    Video
    ID                                       : 1
    Format                                   : AVC
    Format/Info                              : Advanced Video Codec
    Format profile                           : High@L4.1
    Format settings                          : CABAC / 4 Ref Frames
    Format settings, CABAC                   : Yes
    Format settings, RefFrames               : 4 frames
    Muxing mode                              : Header stripping
    Codec ID                                 : V_MPEG4/ISO/AVC
    Duration                                 : 2 h 19 min
    Bit rate                                 : 7 173 kb/s
    Width                                    : 1 920 pixels
    Height                                   : 1 080 pixels
    Display aspect ratio                     : 16:9
    Frame rate mode                          : Constant
    Frame rate                               : 23.976 (24000/1001) FPS
    Color space                              : YUV
    Chroma subsampling                       : 4:2:0
    Bit depth                                : 8 bits
    Scan type                                : Progressive
    Bits/(Pixel*Frame)                       : 0.144
    Stream size                              : 6.98 GiB (77%)
    Title                                    : Rob Roy (1995) Full 1080p Latino
    Writing library                          : x264 core 155 r2893 b00bcaf
    Encoding settings                        : cabac=1 / ref=4 / deblock=1:0:0 / analyse=0x3:0x133 / me=esa / subme=10 / psy=1 / psy_rd=1.00:0.00 / mixed_ref=1 / me_range=24 / chroma_me=1 / trellis=2 / 8x8dct=1 / cqm=0 / deadzone=21,11 / fast_pskip=1 / chroma_qp_offset=-2 / threads=24 / lookahead_threads=4 / sliced_threads=0 / nr=0 / decimate=1 / interlaced=0 / bluray_compat=0 / constrained_intra=0 / bframes=8 / b_pyramid=2 / b_adapt=2 / b_bias=0 / direct=3 / weightb=1 / open_gop=0 / weightp=2 / keyint=240 / keyint_min=24 / scenecut=40 / intra_refresh=0 / rc_lookahead=60 / rc=crf / mbtree=1 / crf=20.0 / qcomp=0.60 / qpmin=0 / qpmax=69 / qpstep=4 / vbv_maxrate=62500 / vbv_bufsize=78125 / crf_max=0.0 / nal_hrd=none / filler=0 / ip_ratio=1.40 / aq=1:1.00
    Language                                 : English
    Default                                  : Yes
    Forced                                   : No
    Color range                              : Limited
    Color primaries                          : BT.709
    Transfer characteristics                 : BT.709
    Matrix coefficients                      : BT.709

    Audio #1
    ID                                       : 2
    Format                                   : AC-3
    Format/Info                              : Audio Coding 3
    Format settings, Endianness              : Big
    Muxing mode                              : Header stripping
    Codec ID                                 : A_AC3
    Duration                                 : 2 h 19 min
    Bit rate mode                            : Constant
    Bit rate                                 : 448 kb/s
    Channel(s)                               : 6 channels
    Channel positions                        : Front: L C R, Side: L R, LFE
    Sampling rate                            : 48.0 kHz
    Frame rate                               : 31.250 FPS (1536 SPF)
    Bit depth                                : 16 bits
    Compression mode                         : Lossy
    Stream size                              : 446 MiB (5%)
    Language                                 : Spanish
    Service kind                             : Complete Main
    Default                                  : Yes
    Forced                                   : No

    Audio #2
    ID                                       : 3
    Format                                   : DTS
    Format/Info                              : Digital Theater Systems
    Mode                                     : 16
    Format settings, Endianness              : Big
    Muxing mode                              : Header stripping
    Codec ID                                 : A_DTS
    Duration                                 : 2 h 19 min
    Bit rate mode                            : Constant
    Bit rate                                 : 1 509 kb/s
    Channel(s)                               : 6 channels
    Channel positions                        : Front: L C R, Side: L R, LFE
    Sampling rate                            : 48.0 kHz
    Frame rate                               : 93.750 FPS (512 SPF)
    Bit depth                                : 24 bits
    Compression mode                         : Lossy
    Stream size                              : 1.47 GiB (16%)
    Language                                 : English
    Default                                  : No
    Forced                                   : No

    Text #1
    ID                                       : 4
    Format                                   : PGS
    Muxing mode                              : zlib
    Codec ID                                 : S_HDMV/PGS
    Codec ID/Info                            : Picture based subtitle format used on BDs/HD-DVDs
    Language                                 : English
    Default                                  : No
    Forced                                   : No

    Text #2
    ID                                       : 5
    Format                                   : PGS
    Muxing mode                              : zlib
    Codec ID                                 : S_HDMV/PGS
    Codec ID/Info                            : Picture based subtitle format used on BDs/HD-DVDs
    Language                                 : Spanish
    Default                                  : No
    Forced                                   : No

    Menu
    00:00:00.000                             : :Chapter 1
    00:02:18.096                             : :Chapter 2
    00:02:45.791                             : :Chapter 3
    00:07:25.570                             : :Chapter 4
    00:10:24.082                             : :Chapter 5
    00:18:40.870                             : :Chapter 6
    00:24:14.078                             : :Chapter 7
    00:31:48.865                             : :Chapter 8
    00:37:45.930                             : :Chapter 9
    00:45:07.788                             : :Chapter 10
    00:50:27.858                             : :Chapter 11
    00:56:03.402                             : :Chapter 12
    01:02:06.473                             : :Chapter 13
    01:04:22.859                             : :Chapter 14
    01:06:06.838                             : :Chapter 15
    01:12:38.688                             : :Chapter 16
    01:15:37.074                             : :Chapter 17
    01:18:13.814                             : :Chapter 18
    01:22:12.928                             : :Chapter 19
    01:24:50.210                             : :Chapter 20
    01:28:14.456                             : :Chapter 21
    01:30:30.675                             : :Chapter 22
    01:35:40.485                             : :Chapter 23
    01:40:18.346                             : :Chapter 24
    01:43:21.737                             : :Chapter 25
    01:46:22.293                             : :Chapter 26
    01:48:46.854                             : :Chapter 27
    01:53:53.452                             : :Chapter 28
    01:59:30.747                             : :Chapter 29
    02:04:41.015                             : :Chapter 30
    02:11:38.516                             : :Chapter 31
    02:14:10.334                             : :Chapter 32

  • Peso: 9.06 GiB

Sinopsis

Rob Roy es un orgulloso ganadero y cabecilla de un clan de las Highlands de Escocia que pide un préstamo de mil libras al marqués de Montrose con el fin de sacar provecho de algún ganado que mantendría a salvo a su pueblo de los azares del invierno. Pero uno de los lacayos de Marquis, el caballero Archibald Cunningham, se entera de ello y roba el dinero tras asesinar a MacDonald, el mejor amigo de Rob Roy.

Ficha técnica

Video trailer de la película

Enlaces de descarga

Rip de Bluray

Descargar Rob Roy (1995) Full 1080p Latino




Aportes de DPeliculasHDmega la pass es:dpeliculashdmega.org Aportes de CinemaniaHD la pass es:cinemaniahdd.com

Películas relacionadas

  • Si solo pudiera imaginar (2018) Full 1080p Latino

    2018
    Si solo pudiera imaginar (2018) Full 1080p Latino

    5.0 1 h 50 min 2018

    La historia real de la aclamada canción "I Can Only Imagine", la canción cristiana contemporánea más...

    Director: Jon Erwin

    Género: Drama

    Actores: Trace Adkins

  • El Justiciero (2014) Full 1080p Latino

    2014
    El Justiciero (2014) Full 1080p Latino

    4.3 2 h 12 min 2014

    Robert McCall, un antiguo agente de la CIA que lleva ahora una vida tranquila, abandona su retiro para...

    Director: Deirdre Horgan

    Género: Acción

    Actores: Yan Dron

  • James Bond Live and Let Die (1973) Full 1080p Latino

    1973
    James Bond Live and Let Die (1973) Full 1080p Latino

    0.0 2 h 1 min 1973

    En tan sólo veinticuatro horas, tres agentes del servicio secreto británico que investigaban una red...

    Director: Guy Hamilton

    Género: Acción

    Actores: Yaphet Kotto

Comentarios 0