Reto al destino (1982) Full 1080p Latino

713 vistas
1 estrella2 estrellas3 estrellas4 estrellas5 estrellas (1 votos, promedio: 5,00 de 5)
Cargando…

Información de Reto al destino (1982) Full 1080p Latino

Datos de la película

  • Calidad: Full 1080p
  • Audio: Español Latino AC3 2.0 BLURAY - Ingles DTS 5.1 BLURAY
  • Subtitulos: Español Latino PGS - Ingles PGS
  • Resolución: 1920x1080p
  • Formato: MKV
  • Codec: H.264
  • Encoder: Dracarys
  • Mediainfo: Clic para Mostrar Datos Ver
  • Format                                   : Matroska
    Format version                           : Version 4 / Version 2
    File size                                : 12.7 GiB
    Duration                                 : 2 h 4 min
    Overall bit rate                         : 14.6 Mb/s
    Movie name                               : CinemaniaHDD.net
    Encoded date                             : UTC 2018-05-29 19:41:16 / UTC 2018-05-23T10:36:13Z
    Writing application                      : mkvmerge v15.0.0 ('Duel with the Devil') 64-bit
    Writing library                          : libebml v1.3.5 + libmatroska v1.4.5 / Lavf57.7.2

    Video
    ID                                       : 1
    Format                                   : AVC
    Format/Info                              : Advanced Video Codec
    Format profile                           : High@L4.1
    Format settings                          : CABAC / 4 Ref Frames
    Format settings, CABAC                   : Yes
    Format settings, RefFrames               : 4 frames
    Codec ID                                 : V_MPEG4/ISO/AVC
    Duration                                 : 2 h 4 min
    Bit rate                                 : 12.6 Mb/s
    Width                                    : 1 920 pixels
    Height                                   : 1 080 pixels
    Display aspect ratio                     : 16:9
    Frame rate mode                          : Constant
    Frame rate                               : 23.976 (24000/1001) FPS
    Color space                              : YUV
    Chroma subsampling                       : 4:2:0
    Bit depth                                : 8 bits
    Scan type                                : Progressive
    Bits/(Pixel*Frame)                       : 0.254
    Stream size                              : 10.9 GiB (86%)
    Title                                    : Reto al destino (1982) Full 1080p Latino
    Writing library                          : x264 core 148 r2708 86b7198
    Encoding settings                        : cabac=1 / ref=4 / deblock=1:0:0 / analyse=0x3:0x133 / me=esa / subme=9 / psy=1 / psy_rd=1.00:0.00 / mixed_ref=1 / me_range=16 / chroma_me=1 / trellis=2 / 8x8dct=1 / cqm=0 / deadzone=21,11 / fast_pskip=1 / chroma_qp_offset=-2 / threads=34 / lookahead_threads=2 / sliced_threads=0 / nr=0 / decimate=1 / interlaced=0 / bluray_compat=0 / constrained_intra=0 / bframes=3 / b_pyramid=2 / b_adapt=2 / b_bias=0 / direct=3 / weightb=1 / open_gop=0 / weightp=2 / keyint=240 / keyint_min=24 / scenecut=40 / intra_refresh=0 / rc_lookahead=60 / rc=crf / mbtree=1 / crf=20.0 / qcomp=0.60 / qpmin=0 / qpmax=69 / qpstep=4 / vbv_maxrate=62500 / vbv_bufsize=78125 / crf_max=0.0 / nal_hrd=none / filler=0 / ip_ratio=1.40 / aq=1:1.00
    Language                                 : English
    Default                                  : Yes
    Forced                                   : No
    Color range                              : Limited
    Color primaries                          : BT.709
    Transfer characteristics                 : BT.709
    Matrix coefficients                      : BT.709
    Statistics Tags Issue                    : mkvmerge v15.0.0 ('Duel with the Devil') 64-bit 2018-05-29 19:41:16 / mkvmerge v15.0.0 ('Duel with the Devil') 64-bit 2018-05-29 19:41:16 / UTC 2018-05-23T10:36:13Z
    FromStats_BitRate                        : 12874723
    FromStats_Duration                       : 02:04:14.322000000
    FromStats_FrameCount                     : 178725
    FromStats_StreamSize                     : 11996541602

    Audio #1
    ID                                       : 2
    Format                                   : AC-3
    Format/Info                              : Audio Coding 3
    Format settings, Endianness              : Big
    Codec ID                                 : A_AC3
    Duration                                 : 2 h 4 min
    Bit rate mode                            : Constant
    Bit rate                                 : 224 kb/s
    Channel(s)                               : 2 channels
    Channel positions                        : Front: L R
    Sampling rate                            : 48.0 kHz
    Frame rate                               : 31.250 FPS (1536 SPF)
    Bit depth                                : 16 bits
    Compression mode                         : Lossy
    Stream size                              : 199 MiB (2%)
    Language                                 : Spanish
    Service kind                             : Complete Main
    Default                                  : Yes
    Forced                                   : No
    Statistics Tags Issue                    : mkvmerge v15.0.0 ('Duel with the Devil') 64-bit 2018-05-29 19:41:16 / mkvmerge v15.0.0 ('Duel with the Devil') 64-bit 2018-05-29 19:41:16 / UTC 2018-05-23T10:36:13Z
    FromStats_BitRate                        : 224000
    FromStats_Duration                       : 02:04:14.336000000
    FromStats_FrameCount                     : 232948
    FromStats_StreamSize                     : 208721408

    Audio #2
    ID                                       : 3
    Format                                   : DTS
    Format/Info                              : Digital Theater Systems
    Mode                                     : 16
    Format settings, Endianness              : Big
    Codec ID                                 : A_DTS
    Duration                                 : 2 h 4 min
    Bit rate mode                            : Constant
    Bit rate                                 : 1 509 kb/s
    Channel(s)                               : 6 channels
    Channel positions                        : Front: L C R, Side: L R, LFE
    Sampling rate                            : 48.0 kHz
    Frame rate                               : 93.750 FPS (512 SPF)
    Bit depth                                : 24 bits
    Compression mode                         : Lossy
    Stream size                              : 1.31 GiB (10%)
    Language                                 : English
    Default                                  : No
    Forced                                   : No
    Statistics Tags Issue                    : mkvmerge v15.0.0 ('Duel with the Devil') 64-bit 2018-05-29 19:41:16 / mkvmerge v15.0.0 ('Duel with the Devil') 64-bit 2018-05-29 19:41:16 / UTC 2018-05-23T10:36:13Z
    FromStats_BitRate                        : 1508999
    FromStats_Duration                       : 02:04:14.315000000
    FromStats_FrameCount                     : 698842
    FromStats_StreamSize                     : 1406070104

    Text #1
    ID                                       : 4
    Format                                   : PGS
    Muxing mode                              : zlib
    Codec ID                                 : S_HDMV/PGS
    Codec ID/Info                            : Picture based subtitle format used on BDs/HD-DVDs
    Language                                 : English
    Default                                  : No
    Forced                                   : No
    Statistics Tags Issue                    : mkvmerge v15.0.0 ('Duel with the Devil') 64-bit 2018-05-29 19:41:16 / mkvmerge v15.0.0 ('Duel with the Devil') 64-bit 2018-05-29 19:41:16 / UTC 2018-05-23T10:36:13Z
    FromStats_BitRate                        : 32444
    FromStats_Duration                       : 01:59:57.690000000
    FromStats_FrameCount                     : 2340
    FromStats_StreamSize                     : 29190544

    Text #2
    ID                                       : 5
    Format                                   : PGS
    Muxing mode                              : zlib
    Codec ID                                 : S_HDMV/PGS
    Codec ID/Info                            : Picture based subtitle format used on BDs/HD-DVDs
    Language                                 : Spanish
    Default                                  : No
    Forced                                   : No
    Statistics Tags Issue                    : mkvmerge v15.0.0 ('Duel with the Devil') 64-bit 2018-05-29 19:41:16 / mkvmerge v15.0.0 ('Duel with the Devil') 64-bit 2018-05-29 19:41:16 / UTC 2018-05-23T10:36:13Z
    FromStats_BitRate                        : 34106
    FromStats_Duration                       : 02:02:58.121000000
    FromStats_FrameCount                     : 2906
    FromStats_StreamSize                     : 31455444

    Menu
    00:00:00.000                             : :Chapter 1
    00:09:01.791                             : :Chapter 2
    00:15:51.784                             : :Chapter 3
    00:21:15.566                             : :Chapter 4
    00:29:42.281                             : :Chapter 5
    00:38:29.641                             : :Chapter 6
    00:49:59.997                             : :Chapter 7
    00:56:12.286                             : :Chapter 8
    01:05:24.379                             : :Chapter 9
    01:17:03.119                             : :Chapter 10
    01:28:15.290                             : :Chapter 11
    01:30:52.280                             : :Chapter 12
    01:48:31.755                             : :Chapter 13
    01:54:55.514                             : :Chapter 14
    01:59:41.716                             : :Chapter 15

  • Peso: 12.7 GiB

Sinopsis

Zack Mayo es un joven asignado a la Escuela Naval Militar de los Estados Unidos. Allí encontrará que su actitud es incompatible con el lugar, algo que intentará corregir el implacable sargento Foley. Durante el proceso conocerá a una joven lugareña, Paula, de la que se enamorará, y que supondrá un punto de inflexión en su vida.

Ficha técnica

Video trailer de la película

Enlaces de descarga

Rip de Bluray

Descargar Reto al destino (1982) Full 1080p Latino




Aportes de DPeliculasHDmega la pass es:dpeliculashdmega.org Aportes de CinemaniaHD la pass es:cinemaniahdd.com

Películas relacionadas

  • Los Gustos y Los Colores (2018) NF 1080p Latino

    2018
    Los Gustos y Los Colores (2018) NF 1080p Latino

    0.0 1h 35m 2018

    Justo cuando Simone se anima a contarle a su conservadora familia judía que es lesbiana, se siente atraída...

    Director: Myriam Aziza

    Género: Comedia

    Actores: Stéphane Debac

  • Luke Cage (2018) Temporada 2 NF 1080p Latino

    2018
    Luke Cage (2018) Temporada 2 NF 1080p Latino

    1.0 0h 46m 2018

    De acuerdo a la sinopsis oficial de la segunda temporada, Luke Cage se ha convertido en un héroe reconocido...

    Director: Cheo Hodari Coker

    Género: Action & Adventure

    Actores: Theo Rossi

  • Luke Cage (2016) Temporada 1 NF 1080p Latino

    2016
    Luke Cage (2016) Temporada 1 NF 1080p Latino

    1.0 0h 46m 2016

    Como consecuencia de un experimento fallido, Luke Cage (Mike Colter) ha desarrollado una piel indestructible...

    Director: Cheo Hodari Coker

    Género: Action & Adventure

    Actores: Theo Rossi

  • Lady Bird (2017) Full 1080p Latino

    2017
    Lady Bird (2017) Full 1080p Latino

    5.0 1h 34m 2017

    Sacramento, California, año 2002. Una joven llamada Christine McPherson (Saoirse Ronan), apodada como...

    Director: Jonas Spaccarotelli

    Género: Comedia

    Actores: Tracy Letts

  • Plan de escape (2013) Full 1080p Latino

    2013
    Plan de escape (2013) Full 1080p Latino

    3.0 1h 56m 2013

    El experto en seguridad Ray Breslin prueba sus teorías poco convencionales en diseño de prisiones elaborando...

    Director: Mikael Håfström

    Género: Acción

    Actores: Vinnie Jones

Comentarios 3
  • slash - 02 junio, 2018

    Gracias, de lujo este aporte.

  • slash - 02 junio, 2018

    Gracias, de lujo con este aporte.

  • Gerardo Vasquez - 29 mayo, 2018

    aportazo!!! Este es un clásico digno de tener en esta calidad, muchas gracias!!!