Quo Vadis (1951) Full 1080p Latino

594 vistas
1 estrella2 estrellas3 estrellas4 estrellas5 estrellas (1 votos, promedio: 5,00 de 5)
Cargando…

Información de Quo Vadis (1951) Full 1080p Latino

Datos de la película

  • Calidad: Full 1080p
  • Audio: Se especifica abajo de la Sinopsis
  • Subtitulos: Español Latino PGS - Ingles PGS
  • Resolución: 1920x1080p
  • Formato: MKV
  • Codec: H.264
  • Encoder: Dracarys
  • Mediainfo: Clic para Mostrar Datos Ver
  • Format                                   : Matroska
    Format version                           : Version 2
    File size                                : 8.12 GiB
    Duration                                 : 2 h 54 min
    Overall bit rate                         : 6 661 kb/s
    Movie name                               : CinemaniaHDD.net
    Encoded date                             : UTC 2018-07-05 10:21:29 / UTC 2018-07-03T13:08:35Z
    Writing application                      : mkvmerge v5.7.0 ('The Whirlwind') built on Jul  8 2012 20:08:51
    Writing library                          : libebml v1.2.3 + libmatroska v1.3.0 / Lavf57.7.2

    Video
    ID                                       : 1
    Format                                   : AVC
    Format/Info                              : Advanced Video Codec
    Format profile                           : High@L4.1
    Format settings                          : CABAC / 4 Ref Frames
    Format settings, CABAC                   : Yes
    Format settings, RefFrames               : 4 frames
    Muxing mode                              : Header stripping
    Codec ID                                 : V_MPEG4/ISO/AVC
    Duration                                 : 2 h 54 min
    Bit rate                                 : 6 144 kb/s
    Width                                    : 1 920 pixels
    Height                                   : 1 080 pixels
    Display aspect ratio                     : 16:9
    Frame rate mode                          : Constant
    Frame rate                               : 23.976 (24000/1001) FPS
    Color space                              : YUV
    Chroma subsampling                       : 4:2:0
    Bit depth                                : 8 bits
    Scan type                                : Progressive
    Bits/(Pixel*Frame)                       : 0.124
    Stream size                              : 7.49 GiB (92%)
    Title                                    : Quo Vadis (1951) Full 1080p Latino
    Writing library                          : x264 core 155 r2893 b00bcaf
    Encoding settings                        : cabac=1 / ref=4 / deblock=1:0:0 / analyse=0x3:0x133 / me=esa / subme=10 / psy=1 / psy_rd=1.00:0.00 / mixed_ref=1 / me_range=24 / chroma_me=1 / trellis=2 / 8x8dct=1 / cqm=0 / deadzone=21,11 / fast_pskip=1 / chroma_qp_offset=-2 / threads=24 / lookahead_threads=4 / sliced_threads=0 / nr=0 / decimate=1 / interlaced=0 / bluray_compat=0 / constrained_intra=0 / bframes=8 / b_pyramid=2 / b_adapt=2 / b_bias=0 / direct=3 / weightb=1 / open_gop=0 / weightp=2 / keyint=240 / keyint_min=24 / scenecut=40 / intra_refresh=0 / rc_lookahead=60 / rc=crf / mbtree=1 / crf=20.0 / qcomp=0.60 / qpmin=0 / qpmax=69 / qpstep=4 / vbv_maxrate=62500 / vbv_bufsize=78125 / crf_max=0.0 / nal_hrd=none / filler=0 / ip_ratio=1.40 / aq=1:1.00
    Language                                 : English
    Default                                  : Yes
    Forced                                   : No
    Color range                              : Limited
    Color primaries                          : BT.709
    Transfer characteristics                 : BT.709
    Matrix coefficients                      : BT.709

    Audio #1
    ID                                       : 2
    Format                                   : AC-3
    Format/Info                              : Audio Coding 3
    Format settings, Endianness              : Big
    Muxing mode                              : Header stripping
    Codec ID                                 : A_AC3
    Duration                                 : 2 h 54 min
    Bit rate mode                            : Constant
    Bit rate                                 : 192 kb/s
    Channel(s)                               : 1 channel
    Channel positions                        : Front: C
    Sampling rate                            : 48.0 kHz
    Frame rate                               : 31.250 FPS (1536 SPF)
    Bit depth                                : 16 bits
    Compression mode                         : Lossy
    Stream size                              : 240 MiB (3%)
    Language                                 : Spanish
    Service kind                             : Complete Main
    Default                                  : Yes
    Forced                                   : No

    Audio #2
    ID                                       : 3
    Format                                   : AC-3
    Format/Info                              : Audio Coding 3
    Format settings, Endianness              : Big
    Muxing mode                              : Header stripping
    Codec ID                                 : A_AC3
    Duration                                 : 2 h 54 min
    Bit rate mode                            : Constant
    Bit rate                                 : 192 kb/s
    Channel(s)                               : 1 channel
    Channel positions                        : Front: C
    Sampling rate                            : 48.0 kHz
    Frame rate                               : 31.250 FPS (1536 SPF)
    Bit depth                                : 16 bits
    Compression mode                         : Lossy
    Stream size                              : 240 MiB (3%)
    Language                                 : English
    Service kind                             : Complete Main
    Default                                  : No
    Forced                                   : No

    Text #1
    ID                                       : 4
    Format                                   : PGS
    Muxing mode                              : zlib
    Codec ID                                 : S_HDMV/PGS
    Codec ID/Info                            : Picture based subtitle format used on BDs/HD-DVDs
    Language                                 : English
    Default                                  : No
    Forced                                   : No

    Text #2
    ID                                       : 5
    Format                                   : PGS
    Muxing mode                              : zlib
    Codec ID                                 : S_HDMV/PGS
    Codec ID/Info                            : Picture based subtitle format used on BDs/HD-DVDs
    Language                                 : Spanish
    Default                                  : No
    Forced                                   : No

    Menu
    00:00:00.000                             : :Chapter 1
    00:03:16.196                             : :Chapter 2
    00:04:37.277                             : :Chapter 3
    00:08:10.281                             : :Chapter 4
    00:12:46.891                             : :Chapter 5
    00:16:39.415                             : :Chapter 6
    00:21:13.564                             : :Chapter 7
    00:25:10.592                             : :Chapter 8
    00:29:45.993                             : :Chapter 9
    00:34:55.719                             : :Chapter 10
    00:38:13.124                             : :Chapter 11
    00:42:39.557                             : :Chapter 12
    00:47:59.502                             : :Chapter 13
    00:52:12.046                             : :Chapter 14
    00:57:00.584                             : :Chapter 15
    01:01:27.100                             : :Chapter 16
    01:05:17.914                             : :Chapter 17
    01:08:34.527                             : :Chapter 18
    01:15:12.383                             : :Chapter 19
    01:18:12.021                             : :Chapter 20
    01:21:48.070                             : :Chapter 21
    01:27:11.226                             : :Chapter 22
    01:30:14.659                             : :Chapter 23
    01:32:11.735                             : :Chapter 24
    01:34:29.122                             : :Chapter 25
    01:39:57.492                             : :Chapter 26
    01:41:54.191                             : :Chapter 27
    01:46:12.199                             : :Chapter 28
    01:49:59.134                             : :Chapter 29
    01:56:57.636                             : :Chapter 30
    01:59:22.989                             : :Chapter 31
    02:02:57.370                             : :Chapter 32
    02:05:56.215                             : :Chapter 33
    02:08:25.323                             : :Chapter 34
    02:13:39.261                             : :Chapter 35
    02:16:19.004                             : :Chapter 36
    02:20:08.609                             : :Chapter 37
    02:23:23.970                             : :Chapter 38
    02:26:07.842                             : :Chapter 39
    02:30:24.015                             : :Chapter 40
    02:34:55.995                             : :Chapter 41
    02:41:44.695                             : :Chapter 42
    02:43:48.861                             : :Chapter 43
    02:49:00.339                             : :Chapter 44
    02:51:03.003                             : :Chapter 45
    02:51:53.637                             : :Chapter 46

  • Peso: 8.12 GiB

Sinopsis

Cuando regresa a Roma, después de tres años en el campo de batalla, el general Marco Vinicio se enamora de Lygia. Pero ella es cristiana y sus creencias le impiden enamorarse de un guerrero. Aunque fue adoptada por un general retirado, jurídicamente es una esclava de Roma. Pero Marco consigue que el emperador Nerón se la ceda en pago por sus servicios.

 

 

Latino AC3 1.0 Bluray  –  Ingles AC3 1.0 Bluray

Ficha técnica

Video trailer de la película

Enlaces de descarga

Rip de Bluray

Descargar Quo Vadis (1951) Full 1080p Latino




Aportes de DPeliculasHDmega la pass es:dpeliculashdmega.org Aportes de CinemaniaHD la pass es:cinemaniahdd.com

Películas relacionadas

  • ¡Hombre al agua! (2018) 1080p Latino

    2018
    ¡Hombre al agua! (2018) 1080p Latino

    5.0 1 h 52 min 2018

    Kate es una madre soltera, trabajadora, madre de tres hijas, contratada para limpiar un yate de lujo...

    Director: Rob Greenberg

    Género: 1080p Portada Negra

    Actores: Toby Hargrave

  • Tully (2018) 1080p Latino

    2018
    Tully (2018) 1080p Latino

    0.0 1 h 35 min 2018

    La historia de una mujer con tres hijos que, incapaz de lidiar con su bebé recién nacido, contrata...

    Director: Jason Reitman

    Género: Comedia

    Actores: Stormy Ent

  • Si solo pudiera imaginar (2018) Full 1080p Latino

    2018
    Si solo pudiera imaginar (2018) Full 1080p Latino

    5.0 1 h 50 min 2018

    La historia real de la aclamada canción "I Can Only Imagine", la canción cristiana contemporánea más...

    Director: Jon Erwin

    Género: Drama

    Actores: Trace Adkins

  • El Justiciero (2014) Full 1080p Latino

    2014
    El Justiciero (2014) Full 1080p Latino

    4.3 2 h 12 min 2014

    Robert McCall, un antiguo agente de la CIA que lleva ahora una vida tranquila, abandona su retiro para...

    Director: Deirdre Horgan

    Género: Acción

    Actores: Yan Dron

Comentarios 0