Quiz Show: el dilema (1994) Full 1080p Latino

589 vistas
1 estrella2 estrellas3 estrellas4 estrellas5 estrellas (1 votos, promedio: 5,00 de 5)
Cargando…

Información de Quiz Show: el dilema (1994) Full 1080p Latino

Datos de la película

  • Calidad: Full 1080p
  • Audio: Español Latino AC3 2.0 BLURAY - Ingles DTS 5.1 BLURAY
  • Subtitulos: Español Latino PGS - Ingles PGS
  • Resolución: 1920x1080p
  • Formato: MKV
  • Codec: H.264
  • Encoder: Dracarys
  • Mediainfo: Clic para Mostrar Datos Ver
  • Format                                   : Matroska
    Format version                           : Version 4 / Version 2
    File size                                : 18.7 GiB
    Duration                                 : 2 h 12 min
    Overall bit rate                         : 20.2 Mb/s
    Movie name                               : CinemaniaHDD.com
    Encoded date                             : UTC 2018-05-16 04:03:53 / UTC 2018-05-15T22:44:03Z
    Writing application                      : mkvmerge v15.0.0 ('Duel with the Devil') 64-bit
    Writing library                          : libebml v1.3.5 + libmatroska v1.4.5 / Lavf57.7.2

    Video
    ID                                       : 1
    Format                                   : AVC
    Format/Info                              : Advanced Video Codec
    Format profile                           : High@L4.1
    Format settings                          : CABAC / 4 Ref Frames
    Format settings, CABAC                   : Yes
    Format settings, RefFrames               : 4 frames
    Codec ID                                 : V_MPEG4/ISO/AVC
    Duration                                 : 2 h 12 min
    Bit rate                                 : 17.9 Mb/s
    Width                                    : 1 920 pixels
    Height                                   : 1 080 pixels
    Display aspect ratio                     : 16:9
    Frame rate mode                          : Constant
    Frame rate                               : 23.976 (24000/1001) FPS
    Color space                              : YUV
    Chroma subsampling                       : 4:2:0
    Bit depth                                : 8 bits
    Scan type                                : Progressive
    Bits/(Pixel*Frame)                       : 0.361
    Stream size                              : 16.6 GiB (89%)
    Title                                    : Quiz Show el dilema (1994) Full 1080p Latino
    Writing library                          : x264 core 148 r2708 86b7198
    Encoding settings                        : cabac=1 / ref=4 / deblock=1:0:0 / analyse=0x3:0x133 / me=esa / subme=9 / psy=1 / psy_rd=1.00:0.00 / mixed_ref=1 / me_range=16 / chroma_me=1 / trellis=2 / 8x8dct=1 / cqm=0 / deadzone=21,11 / fast_pskip=1 / chroma_qp_offset=-2 / threads=34 / lookahead_threads=2 / sliced_threads=0 / nr=0 / decimate=1 / interlaced=0 / bluray_compat=0 / constrained_intra=0 / bframes=3 / b_pyramid=2 / b_adapt=2 / b_bias=0 / direct=3 / weightb=1 / open_gop=0 / weightp=2 / keyint=240 / keyint_min=24 / scenecut=40 / intra_refresh=0 / rc_lookahead=60 / rc=crf / mbtree=1 / crf=20.0 / qcomp=0.60 / qpmin=0 / qpmax=69 / qpstep=4 / vbv_maxrate=62500 / vbv_bufsize=78125 / crf_max=0.0 / nal_hrd=none / filler=0 / ip_ratio=1.40 / aq=1:1.00
    Language                                 : English
    Default                                  : Yes
    Forced                                   : No
    Color range                              : Limited
    Color primaries                          : BT.709
    Transfer characteristics                 : BT.709
    Matrix coefficients                      : BT.709
    Statistics Tags Issue                    : mkvmerge v15.0.0 ('Duel with the Devil') 64-bit 2018-05-16 04:03:53 / mkvmerge v15.0.0 ('Duel with the Devil') 64-bit 2018-05-16 04:03:53 / UTC 2018-05-15T22:44:03Z
    FromStats_BitRate                        : 18294530
    FromStats_Duration                       : 02:12:43.164000000
    FromStats_FrameCount                     : 190925
    FromStats_StreamSize                     : 18210293228

    Audio #1
    ID                                       : 2
    Format                                   : AC-3
    Format/Info                              : Audio Coding 3
    Mode                                     : Dolby Digital
    Format settings, Endianness              : Big
    Codec ID                                 : A_AC3
    Duration                                 : 2 h 12 min
    Bit rate mode                            : Constant
    Bit rate                                 : 320 kb/s
    Channel(s)                               : 2 channels
    Channel positions                        : Front: L R
    Sampling rate                            : 48.0 kHz
    Frame rate                               : 31.250 FPS (1536 SPF)
    Bit depth                                : 16 bits
    Compression mode                         : Lossy
    Stream size                              : 304 MiB (2%)
    Language                                 : Spanish
    Service kind                             : Complete Main
    Default                                  : Yes
    Forced                                   : No
    Statistics Tags Issue                    : mkvmerge v15.0.0 ('Duel with the Devil') 64-bit 2018-05-16 04:03:53 / mkvmerge v15.0.0 ('Duel with the Devil') 64-bit 2018-05-16 04:03:53 / UTC 2018-05-15T22:44:03Z
    FromStats_BitRate                        : 320000
    FromStats_Duration                       : 02:12:43.232000000
    FromStats_FrameCount                     : 248851
    FromStats_StreamSize                     : 318529280

    Audio #2
    ID                                       : 3
    Format                                   : DTS
    Format/Info                              : Digital Theater Systems
    Mode                                     : 16
    Format settings, Endianness              : Big
    Codec ID                                 : A_DTS
    Duration                                 : 2 h 12 min
    Bit rate mode                            : Constant
    Bit rate                                 : 1 509 kb/s
    Channel(s)                               : 6 channels
    Channel positions                        : Front: L C R, Side: L R, LFE
    Sampling rate                            : 48.0 kHz
    Frame rate                               : 93.750 FPS (512 SPF)
    Bit depth                                : 24 bits
    Compression mode                         : Lossy
    Stream size                              : 1.40 GiB (7%)
    Language                                 : English
    Default                                  : No
    Forced                                   : No
    Statistics Tags Issue                    : mkvmerge v15.0.0 ('Duel with the Devil') 64-bit 2018-05-16 04:03:53 / mkvmerge v15.0.0 ('Duel with the Devil') 64-bit 2018-05-16 04:03:53 / UTC 2018-05-15T22:44:03Z
    FromStats_BitRate                        : 1509000
    FromStats_Duration                       : 02:12:43.200000000
    FromStats_FrameCount                     : 746550
    FromStats_StreamSize                     : 1502058600

    Text #1
    ID                                       : 4
    Format                                   : PGS
    Muxing mode                              : zlib
    Codec ID                                 : S_HDMV/PGS
    Codec ID/Info                            : Picture based subtitle format used on BDs/HD-DVDs
    Language                                 : English
    Default                                  : No
    Forced                                   : No
    Statistics Tags Issue                    : mkvmerge v15.0.0 ('Duel with the Devil') 64-bit 2018-05-16 04:03:53 / mkvmerge v15.0.0 ('Duel with the Devil') 64-bit 2018-05-16 04:03:53 / UTC 2018-05-15T22:44:03Z
    FromStats_BitRate                        : 64961
    FromStats_Duration                       : 02:11:49.319000000
    FromStats_FrameCount                     : 5033
    FromStats_StreamSize                     : 64224971

    Text #2
    ID                                       : 5
    Format                                   : PGS
    Muxing mode                              : zlib
    Codec ID                                 : S_HDMV/PGS
    Codec ID/Info                            : Picture based subtitle format used on BDs/HD-DVDs
    Language                                 : Spanish
    Default                                  : No
    Forced                                   : No
    Statistics Tags Issue                    : mkvmerge v15.0.0 ('Duel with the Devil') 64-bit 2018-05-16 04:03:53 / mkvmerge v15.0.0 ('Duel with the Devil') 64-bit 2018-05-16 04:03:53 / UTC 2018-05-15T22:44:03Z
    FromStats_BitRate                        : 49621
    FromStats_Duration                       : 02:08:14.479000000
    FromStats_FrameCount                     : 4174
    FromStats_StreamSize                     : 47726772

    Menu
    00:00:00.000                             : :Chapter 1
    00:00:13.514                             : :Chapter 2
    00:05:07.849                             : :Chapter 3
    00:08:38.309                             : :Chapter 4
    00:13:18.881                             : :Chapter 5
    00:17:07.652                             : :Chapter 6
    00:24:21.710                             : :Chapter 7
    00:30:15.689                             : :Chapter 8
    00:36:56.047                             : :Chapter 9
    00:39:44.799                             : :Chapter 10
    00:42:35.053                             : :Chapter 11
    00:51:09.316                             : :Chapter 12
    00:55:54.768                             : :Chapter 13
    00:58:53.780                             : :Chapter 14
    01:06:27.901                             : :Chapter 15
    01:09:34.128                             : :Chapter 16
    01:13:35.620                             : :Chapter 17
    01:16:46.310                             : :Chapter 18
    01:22:49.715                             : :Chapter 19
    01:24:14.007                             : :Chapter 20
    01:33:44.702                             : :Chapter 21
    01:39:08.276                             : :Chapter 22
    01:43:25.491                             : :Chapter 23
    01:47:13.260                             : :Chapter 24
    01:51:58.378                             : :Chapter 25
    01:53:43.734                             : :Chapter 26
    01:58:06.079                             : :Chapter 27
    02:04:37.804                             : :Chapter 28
    02:05:38.489                             : :Chapter 29
    02:08:43.466                             : :Chapter 30

  • Peso: 18.7 GiB

Sinopsis

Entre 1956 y 1959, Charles Van Doren, perteneciente a una prestigiosa familia de intelectuales y profesor de inglés de la universidad de Columbia, se convirtió en uno de los personajes más populares de Estados Unidos gracias a su participación en el concurso de televisión ”Twenty One”. Durante tres años contestó siempre las más variadas y difíciles preguntas. Pero, cuando su popularidad había llegado a todos los rincones del país, estalló el escándalo: uno de los concursantes eliminados denunció que el concurso estaba amañado.

Ficha técnica

Video trailer de la película

Enlaces de descarga

Rip de Bluray

Descargar Quiz Show: el dilema (1994) Full 1080p Latino




Aportes de DPeliculasHDmega la pass es:dpeliculashdmega.org Aportes de CinemaniaHD la pass es:cinemaniahdd.com

Películas relacionadas

Comentarios 0