Peter Pan (1953) Full 1080p Latino

1.091 vistas
1 estrella2 estrellas3 estrellas4 estrellas5 estrellas (Ninguna valoración todavía)
Cargando…

Información de Peter Pan (1953) Full 1080p Latino

Datos de la película

  • Calidad: Full 1080p
  • Audio: Español Latino AC3 5.1 BLURAY - Ingles DTS 5.1 BLURAY
  • Subtitulos: Español Latino PGS - Ingles PGS
  • Resolución: 1920x1080p
  • Formato: MKV
  • Codec: H.264
  • Encoder: Dracarys
  • Mediainfo: Clic para Mostrar Datos Ver
  • Format                                   : Matroska
    Format version                           : Version 4 / Version 2
    File size                                : 2.55 GiB
    Duration                                 : 1 h 16 min
    Overall bit rate                         : 4 761 kb/s
    Movie name                               : CinemaniaHDD.com
    Encoded date                             : UTC 2018-03-06 21:59:31 / UTC 2018-03-06T19:22:58Z
    Writing application                      : mkvmerge v15.0.0 ('Duel with the Devil') 64-bit
    Writing library                          : libebml v1.3.5 + libmatroska v1.4.5 / Lavf57.7.2

    Video
    ID                                       : 1
    Format                                   : AVC
    Format/Info                              : Advanced Video Codec
    Format profile                           : High@L4.1
    Format settings                          : CABAC / 4 Ref Frames
    Format settings, CABAC                   : Yes
    Format settings, RefFrames               : 4 frames
    Codec ID                                 : V_MPEG4/ISO/AVC
    Duration                                 : 1 h 16 min
    Bit rate                                 : 2 517 kb/s
    Width                                    : 1 920 pixels
    Height                                   : 1 080 pixels
    Display aspect ratio                     : 16:9
    Frame rate mode                          : Constant
    Frame rate                               : 23.976 (24000/1001) FPS
    Color space                              : YUV
    Chroma subsampling                       : 4:2:0
    Bit depth                                : 8 bits
    Scan type                                : Progressive
    Bits/(Pixel*Frame)                       : 0.051
    Stream size                              : 1.35 GiB (53%)
    Title                                    : Peter Pan (1953) Full 1080p Latino
    Writing library                          : x264 core 148 r2708 86b7198
    Encoding settings                        : cabac=1 / ref=4 / deblock=1:0:0 / analyse=0x3:0x133 / me=esa / subme=10 / psy=1 / psy_rd=1.00:0.00 / mixed_ref=1 / me_range=24 / chroma_me=1 / trellis=2 / 8x8dct=1 / cqm=0 / deadzone=21,11 / fast_pskip=1 / chroma_qp_offset=-2 / threads=34 / lookahead_threads=5 / sliced_threads=0 / nr=0 / decimate=1 / interlaced=0 / bluray_compat=0 / constrained_intra=0 / bframes=8 / b_pyramid=2 / b_adapt=2 / b_bias=0 / direct=3 / weightb=1 / open_gop=0 / weightp=2 / keyint=240 / keyint_min=24 / scenecut=40 / intra_refresh=0 / rc_lookahead=60 / rc=crf / mbtree=1 / crf=20.0 / qcomp=0.60 / qpmin=0 / qpmax=69 / qpstep=4 / vbv_maxrate=62500 / vbv_bufsize=78125 / crf_max=0.0 / nal_hrd=none / filler=0 / ip_ratio=1.40 / aq=1:1.00
    Language                                 : English
    Default                                  : Yes
    Forced                                   : No
    Color range                              : Limited
    Color primaries                          : BT.709
    Transfer characteristics                 : BT.709
    Matrix coefficients                      : BT.709
    Statistics Tags Issue                    : mkvmerge v15.0.0 ('Duel with the Devil') 64-bit 2018-03-06 21:59:31 / mkvmerge v15.0.0 ('Duel with the Devil') 64-bit 2018-03-06 21:59:31 / UTC 2018-03-06T19:22:58Z
    FromStats_BitRate                        : 2573898
    FromStats_Duration                       : 01:16:46.435000000
    FromStats_FrameCount                     : 110444
    FromStats_StreamSize                     : 1482062170

    Audio #1
    ID                                       : 2
    Format                                   : AC-3
    Format/Info                              : Audio Coding 3
    Format settings, Endianness              : Big
    Codec ID                                 : A_AC3
    Duration                                 : 1 h 16 min
    Bit rate mode                            : Constant
    Bit rate                                 : 640 kb/s
    Channel(s)                               : 6 channels
    Channel positions                        : Front: L C R, Side: L R, LFE
    Sampling rate                            : 48.0 kHz
    Frame rate                               : 31.250 FPS (1536 SPF)
    Bit depth                                : 16 bits
    Compression mode                         : Lossy
    Stream size                              : 351 MiB (13%)
    Language                                 : Spanish
    Service kind                             : Complete Main
    Default                                  : Yes
    Forced                                   : No
    Statistics Tags Issue                    : mkvmerge v15.0.0 ('Duel with the Devil') 64-bit 2018-03-06 21:59:31 / mkvmerge v15.0.0 ('Duel with the Devil') 64-bit 2018-03-06 21:59:31 / UTC 2018-03-06T19:22:58Z
    FromStats_BitRate                        : 640000
    FromStats_Duration                       : 01:16:46.528000000
    FromStats_FrameCount                     : 143954
    FromStats_StreamSize                     : 368522240

    Audio #2
    ID                                       : 3
    Format                                   : DTS
    Format/Info                              : Digital Theater Systems
    Mode                                     : 16
    Format settings, Endianness              : Big
    Codec ID                                 : A_DTS
    Duration                                 : 1 h 16 min
    Bit rate mode                            : Constant
    Bit rate                                 : 1 509 kb/s
    Channel(s)                               : 6 channels
    Channel positions                        : Front: L C R, Side: L R, LFE
    Sampling rate                            : 48.0 kHz
    Frame rate                               : 93.750 FPS (512 SPF)
    Bit depth                                : 24 bits
    Compression mode                         : Lossy
    Stream size                              : 829 MiB (32%)
    Language                                 : English
    Default                                  : No
    Forced                                   : No
    Statistics Tags Issue                    : mkvmerge v15.0.0 ('Duel with the Devil') 64-bit 2018-03-06 21:59:31 / mkvmerge v15.0.0 ('Duel with the Devil') 64-bit 2018-03-06 21:59:31 / UTC 2018-03-06T19:22:58Z
    FromStats_BitRate                        : 1508999
    FromStats_Duration                       : 01:16:46.475000000
    FromStats_FrameCount                     : 431857
    FromStats_StreamSize                     : 868896284

    Text #1
    ID                                       : 4
    Format                                   : UTF-8
    Codec ID                                 : S_TEXT/UTF8
    Codec ID/Info                            : UTF-8 Plain Text
    Title                                    : SRT-Completos
    Language                                 : Spanish
    Default                                  : No
    Forced                                   : No
    Statistics Tags Issue                    : mkvmerge v15.0.0 ('Duel with the Devil') 64-bit 2018-03-06 21:59:31 / mkvmerge v15.0.0 ('Duel with the Devil') 64-bit 2018-03-06 21:59:31 / UTC 2018-03-06T19:22:58Z
    FromStats_BitRate                        : 56
    FromStats_Duration                       : 01:15:57.847000000
    FromStats_FrameCount                     : 1039
    FromStats_StreamSize                     : 32374

    Text #2
    ID                                       : 5
    Format                                   : PGS
    Muxing mode                              : zlib
    Codec ID                                 : S_HDMV/PGS
    Codec ID/Info                            : Picture based subtitle format used on BDs/HD-DVDs
    Title                                    : PGS-Completos
    Language                                 : Spanish
    Default                                  : No
    Forced                                   : No
    Statistics Tags Issue                    : mkvmerge v15.0.0 ('Duel with the Devil') 64-bit 2018-03-06 21:59:31 / mkvmerge v15.0.0 ('Duel with the Devil') 64-bit 2018-03-06 21:59:31 / UTC 2018-03-06T19:22:58Z
    FromStats_BitRate                        : 51895
    FromStats_Duration                       : 01:15:57.850000000
    FromStats_FrameCount                     : 2078
    FromStats_StreamSize                     : 29566251

    Text #3
    ID                                       : 6
    Format                                   : PGS
    Muxing mode                              : zlib
    Codec ID                                 : S_HDMV/PGS
    Codec ID/Info                            : Picture based subtitle format used on BDs/HD-DVDs
    Title                                    : PGS-Completos
    Language                                 : English
    Default                                  : No
    Forced                                   : No
    Statistics Tags Issue                    : mkvmerge v15.0.0 ('Duel with the Devil') 64-bit 2018-03-06 21:59:31 / mkvmerge v15.0.0 ('Duel with the Devil') 64-bit 2018-03-06 21:59:31 / UTC 2018-03-06T19:22:58Z
    FromStats_BitRate                        : 38880
    FromStats_Duration                       : 01:15:55.927000000
    FromStats_FrameCount                     : 2152
    FromStats_StreamSize                     : 22141865

    Menu
    00:00:00.000                             : :Chapter 1
    00:01:49.526                             : :Chapter 2
    00:03:46.351                             : :Chapter 3
    00:07:40.877                             : :Chapter 4
    00:10:20.453                             : :Chapter 5
    00:12:22.784                             : :Chapter 6
    00:15:09.700                             : :Chapter 7
    00:16:13.639                             : :Chapter 8
    00:18:06.043                             : :Chapter 9
    00:20:28.602                             : :Chapter 10
    00:25:18.058                             : :Chapter 11
    00:27:38.490                             : :Chapter 12
    00:31:48.824                             : :Chapter 13
    00:33:59.704                             : :Chapter 14
    00:36:31.398                             : :Chapter 15
    00:38:19.672                             : :Chapter 16
    00:42:30.048                             : :Chapter 17
    00:43:46.082                             : :Chapter 18
    00:45:51.540                             : :Chapter 19
    00:46:59.608                             : :Chapter 20
    00:50:08.589                             : :Chapter 21
    00:52:52.628                             : :Chapter 22
    00:56:25.674                             : :Chapter 23
    00:58:28.880                             : :Chapter 24
    01:01:59.299                             : :Chapter 25
    01:04:30.492                             : :Chapter 26
    01:06:21.728                             : :Chapter 27
    01:07:40.431                             : :Chapter 28
    01:10:13.668                             : :Chapter 29
    01:12:47.405                             : :Chapter 30
    01:14:25.211                             : :Chapter 31

  • Peso: 2.55 GiB

Sinopsis

Uno de los grandes clásicos de la factoría Walt Disney, que relata las aventuras en el País de Nunca Jamás de Peter Pan, su compañera Campanilla, su amiga Wendy y los Niños Perdidos, en su lucha contra el malvado Capitán Garfio.

Ficha técnica

Video trailer de la película

Enlaces de descarga

Rip de Bluray

Descargar Peter Pan (1953) Full 1080p Latino




Aportes de DPeliculasHDmega la pass es:dpeliculashdmega.org Aportes de CinemaniaHD la pass es:cinemaniahdd.com

Películas relacionadas

  • Si solo pudiera imaginar (2018) Full 1080p Latino

    2018
    Si solo pudiera imaginar (2018) Full 1080p Latino

    4.8 1 h 50 min 2018

    La historia real de la aclamada canción "I Can Only Imagine", la canción cristiana contemporánea más...

    Director: Jon Erwin

    Género: Drama

    Actores: Trace Adkins

  • El Justiciero (2014) Full 1080p Latino

    2014
    El Justiciero (2014) Full 1080p Latino

    4.3 2 h 12 min 2014

    Robert McCall, un antiguo agente de la CIA que lleva ahora una vida tranquila, abandona su retiro para...

    Director: Deirdre Horgan

    Género: Acción

    Actores: Yan Dron

  • James Bond Live and Let Die (1973) Full 1080p Latino

    1973
    James Bond Live and Let Die (1973) Full 1080p Latino

    0.0 2 h 1 min 1973

    En tan sólo veinticuatro horas, tres agentes del servicio secreto británico que investigaban una red...

    Director: Guy Hamilton

    Género: Acción

    Actores: Yaphet Kotto

Comentarios 0