Only the Brave (2017) 1080p Latino

2.508 vistas
1 estrella2 estrellas3 estrellas4 estrellas5 estrellas (4 votos, promedio: 5,00 de 5)
Cargando…

Información de Only the Brave (2017) 1080p Latino

Datos de la película

  • Calidad: 1080p
  • Audio: Español Latino AC3 2.0 iTUNES - Ingles AC3 5.1 BLURAY
  • Subtitulos: Español Latino SRT
  • Resolución: 1920X804
  • Formato: MKV
  • Codec: H.264
  • Encoder: Dracarys
  • Mediainfo: Clic para Mostrar Datos Ver
  • Format                                   : Matroska
    Format version                           : Version 4 / Version 2
    File size                                : 4.02 GiB
    Duration                                 : 2 h 14 min
    Overall bit rate                         : 4 297 kb/s
    Movie name                               : CinemaniaHDD.com
    Encoded date                             : UTC 2018-01-26 17:56:22 / UTC 2018-01-26T14:17:13Z
    Writing application                      : mkvmerge v15.0.0 ('Duel with the Devil') 64-bit
    Writing library                          : libebml v1.3.5 + libmatroska v1.4.5 / Lavf57.7.2

    Video
    ID                                       : 1
    Format                                   : AVC
    Format/Info                              : Advanced Video Codec
    Format profile                           : High@L4.1
    Format settings                          : CABAC / 4 Ref Frames
    Format settings, CABAC                   : Yes
    Format settings, RefFrames               : 4 frames
    Codec ID                                 : V_MPEG4/ISO/AVC
    Duration                                 : 2 h 14 min
    Bit rate                                 : 3 500 kb/s
    Width                                    : 1 920 pixels
    Height                                   : 804 pixels
    Display aspect ratio                     : 2.40:1
    Frame rate mode                          : Constant
    Frame rate                               : 23.976 (24000/1001) FPS
    Color space                              : YUV
    Chroma subsampling                       : 4:2:0
    Bit depth                                : 8 bits
    Scan type                                : Progressive
    Bits/(Pixel*Frame)                       : 0.095
    Stream size                              : 3.16 GiB (79%)
    Title                                    : Only the Brave (2017) 1080p Latino
    Writing library                          : x264 core 148 r2708 86b7198
    Encoding settings                        : cabac=1 / ref=3 / deblock=1:0:0 / analyse=0x3:0x113 / me=hex / subme=7 / psy=1 / psy_rd=1.00:0.00 / mixed_ref=1 / me_range=16 / chroma_me=1 / trellis=1 / 8x8dct=1 / cqm=0 / deadzone=21,11 / fast_pskip=1 / chroma_qp_offset=-2 / threads=25 / lookahead_threads=4 / sliced_threads=0 / nr=0 / decimate=1 / interlaced=0 / bluray_compat=0 / constrained_intra=0 / bframes=3 / b_pyramid=2 / b_adapt=1 / b_bias=0 / direct=1 / weightb=1 / open_gop=0 / weightp=2 / keyint=240 / keyint_min=24 / scenecut=40 / intra_refresh=0 / rc_lookahead=40 / rc=abr / mbtree=1 / bitrate=3500 / ratetol=1.0 / qcomp=0.60 / qpmin=0 / qpmax=69 / qpstep=4 / vbv_maxrate=62500 / vbv_bufsize=78125 / nal_hrd=none / filler=0 / ip_ratio=1.40 / aq=1:1.00
    Language                                 : English
    Default                                  : Yes
    Forced                                   : No
    Color range                              : Limited
    Color primaries                          : BT.709
    Transfer characteristics                 : BT.709
    Matrix coefficients                      : BT.709
    Statistics Tags Issue                    : mkvmerge v15.0.0 ('Duel with the Devil') 64-bit 2018-01-26 17:56:22 / mkvmerge v15.0.0 ('Duel with the Devil') 64-bit 2018-01-26 17:56:22 / UTC 2018-01-26T14:17:13Z
    FromStats_BitRate                        : 3463083
    FromStats_Duration                       : 02:14:03.035000000
    FromStats_FrameCount                     : 192840
    FromStats_StreamSize                     : 3481713155

    Audio #1
    ID                                       : 2
    Format                                   : AC-3
    Format/Info                              : Audio Coding 3
    Format settings, Endianness              : Big
    Codec ID                                 : A_AC3
    Duration                                 : 2 h 14 min
    Bit rate mode                            : Constant
    Bit rate                                 : 192 kb/s
    Channel(s)                               : 2 channels
    Channel positions                        : Front: L R
    Sampling rate                            : 48.0 kHz
    Frame rate                               : 31.250 FPS (1536 SPF)
    Bit depth                                : 16 bits
    Compression mode                         : Lossy
    Delay relative to video                  : 19 ms
    Stream size                              : 184 MiB (4%)
    Language                                 : Spanish
    Service kind                             : Complete Main
    Default                                  : Yes
    Forced                                   : No
    Statistics Tags Issue                    : mkvmerge v15.0.0 ('Duel with the Devil') 64-bit 2018-01-26 17:56:22 / mkvmerge v15.0.0 ('Duel with the Devil') 64-bit 2018-01-26 17:56:22 / UTC 2018-01-26T14:17:13Z
    FromStats_BitRate                        : 192000
    FromStats_Duration                       : 02:14:04.064000000
    FromStats_FrameCount                     : 251377
    FromStats_StreamSize                     : 193057536

    Audio #2
    ID                                       : 3
    Format                                   : AC-3
    Format/Info                              : Audio Coding 3
    Format settings, Endianness              : Big
    Codec ID                                 : A_AC3
    Duration                                 : 2 h 14 min
    Bit rate mode                            : Constant
    Bit rate                                 : 640 kb/s
    Channel(s)                               : 6 channels
    Channel positions                        : Front: L C R, Side: L R, LFE
    Sampling rate                            : 48.0 kHz
    Frame rate                               : 31.250 FPS (1536 SPF)
    Bit depth                                : 16 bits
    Compression mode                         : Lossy
    Delay relative to video                  : -5 ms
    Stream size                              : 614 MiB (15%)
    Language                                 : English
    Service kind                             : Complete Main
    Default                                  : No
    Forced                                   : No
    Statistics Tags Issue                    : mkvmerge v15.0.0 ('Duel with the Devil') 64-bit 2018-01-26 17:56:22 / mkvmerge v15.0.0 ('Duel with the Devil') 64-bit 2018-01-26 17:56:22 / UTC 2018-01-26T14:17:13Z
    FromStats_BitRate                        : 640000
    FromStats_Duration                       : 02:14:03.008000000
    FromStats_FrameCount                     : 251344
    FromStats_StreamSize                     : 643440640

    Text
    ID                                       : 4
    Format                                   : UTF-8
    Codec ID                                 : S_TEXT/UTF8
    Codec ID/Info                            : UTF-8 Plain Text
    Language                                 : Spanish
    Default                                  : No
    Forced                                   : No
    Statistics Tags Issue                    : mkvmerge v15.0.0 ('Duel with the Devil') 64-bit 2018-01-26 17:56:22 / mkvmerge v15.0.0 ('Duel with the Devil') 64-bit 2018-01-26 17:56:22 / UTC 2018-01-26T14:17:13Z
    FromStats_BitRate                        : 63
    FromStats_Duration                       : 02:08:42.215000000
    FromStats_FrameCount                     : 1702
    FromStats_StreamSize                     : 61372

    Menu
    00:00:00.000                             : :00:00:00.000
    00:06:39.107                             : :00:06:39.107
    00:16:14.891                             : :00:16:14.891
    00:26:30.297                             : :00:26:30.297
    00:34:26.856                             : :00:34:26.856
    00:43:54.298                             : :00:43:54.298
    00:51:29.336                             : :00:51:29.336
    00:59:18.430                             : :00:59:18.430
    01:08:27.312                             : :01:08:27.312
    01:16:19.366                             : :01:16:19.366
    01:24:16.468                             : :01:24:16.468
    01:32:51.524                             : :01:32:51.524
    01:39:07.567                             : :01:39:07.567
    01:45:11.972                             : :01:45:11.972
    01:52:54.935                             : :01:52:54.935
    02:02:04.776                             : :02:02:04.776

  • Peso: 4.02 GiB

Sinopsis

Drama inspirado en la lucha del heroico cuerpo de bomberos Granite Mountain Hotshots contra un terrible incendio sucedido en Prescott, Arizona, en junio de 2013.

Ficha técnica

Video trailer de la película

Enlaces de descarga

Rip de Bluray

Descargar Only the Brave (2017) 1080p Latino




Aportes de DPeliculasHDmega la pass es:dpeliculashdmega.org Aportes de CinemaniaHD la pass es:cinemaniahdd.com
Guardado en : Drama

Películas relacionadas

  • The Padre (2018) WEB-DL 1080p Latino

    2018
    The Padre (2018) WEB-DL 1080p Latino

    3.0 1h 38m 2018

    Descargar The Padre (2018) WEB-DL 1080p Latino; Mega, Google Drive. El juez estadounidense retirado Randall...

    Director: Jonathan Sobol

    Género: Drama

    Actores: Tim Roth

  • Paciente Cero (2018) Full 1080p Latino

    2018
    Paciente Cero (2018) Full 1080p Latino

    3.7 1h 26m 2018

    Paciente Cero (2018) Full 1080p Latino; Mega, Google Drive. Tras una pandemia sin precedentes, la Humanidad...

    Director: Stefan Ruzowitzky

    Género: Acción

    Actores: Yumiko Hanasaka

  • Paciente Cero (2018) 1080p Latino

    2018
    Paciente Cero (2018) 1080p Latino

    1.0 1h 26m 2018

    Descargar Paciente Cero (2018) 1080p Latino; Mega, Google Drive. Tras una pandemia sin precedentes, la...

    Director: Stefan Ruzowitzky

    Género: Acción

    Actores: Yumiko Hanasaka

Comentarios 2
  • snj - 31 enero, 2018

    Hola
    saldrá mejor audio?

    • Dracarys - 03 febrero, 2018

      mas adelante