Ocean’s Eleven. Hagan juego (2001) Full 1080p Latino

1.392 vistas
1 estrella2 estrellas3 estrellas4 estrellas5 estrellas (1 votos, promedio: 5,00 de 5)
Cargando…

Información de Ocean’s Eleven. Hagan juego (2001) Full 1080p Latino

Datos de la película

  • Calidad: Full 1080p
  • Audio: Español Latino AC3 2.0 BLURAY - Ingles AC3 5.1 BLURAY
  • Subtitulos: Español Latino PGS - Ingles PGS
  • Resolución: 1920X1080p
  • Formato: MKV
  • Codec: H.264
  • Encoder: Dpelis
  • Mediainfo: Clic para Mostrar Datos Ver
  • Format                                   : Matroska
    Format version                           : Version 4 / Version 2
    File size                                : 7.44 GiB
    Duration                                 : 1 h 56 min
    Overall bit rate                         : 9 139 kb/s
    Movie name                               : dpeliculashdmega,org
    Encoded date                             : UTC 2017-11-27 05:46:13 / UTC 2017-11-17T14:46:43Z
    Writing application                      : mkvmerge v15.0.0 ('Duel with the Devil') 64-bit
    Writing library                          : libebml v1.3.5 + libmatroska v1.4.5 / Lavf57.7.2

    Video
    ID                                       : 1
    Format                                   : AVC
    Format/Info                              : Advanced Video Codec
    Format profile                           : High@L4.1
    Format settings                          : CABAC / 4 Ref Frames
    Format settings, CABAC                   : Yes
    Format settings, RefFrames               : 4 frames
    Codec ID                                 : V_MPEG4/ISO/AVC
    Duration                                 : 1 h 56 min
    Bit rate                                 : 8 125 kb/s
    Width                                    : 1 920 pixels
    Height                                   : 1 080 pixels
    Display aspect ratio                     : 16:9
    Frame rate mode                          : Constant
    Frame rate                               : 23.976 (24000/1001) FPS
    Color space                              : YUV
    Chroma subsampling                       : 4:2:0
    Bit depth                                : 8 bits
    Scan type                                : Progressive
    Bits/(Pixel*Frame)                       : 0.163
    Stream size                              : 6.62 GiB (89%)
    Title                                    : Ocean's Eleven. Hagan juego (2001) Full 1080p Latino
    Writing library                          : x264 core 148 r2708 86b7198
    Encoding settings                        : cabac=1 / ref=4 / deblock=1:0:0 / analyse=0x3:0x133 / me=esa / subme=10 / psy=1 / psy_rd=1.00:0.00 / mixed_ref=1 / me_range=24 / chroma_me=1 / trellis=2 / 8x8dct=1 / cqm=0 / deadzone=21,11 / fast_pskip=1 / chroma_qp_offset=-2 / threads=34 / lookahead_threads=5 / sliced_threads=0 / nr=0 / decimate=1 / interlaced=0 / bluray_compat=0 / constrained_intra=0 / bframes=8 / b_pyramid=2 / b_adapt=2 / b_bias=0 / direct=3 / weightb=1 / open_gop=0 / weightp=2 / keyint=240 / keyint_min=24 / scenecut=40 / intra_refresh=0 / rc_lookahead=60 / rc=crf / mbtree=1 / crf=20.0 / qcomp=0.60 / qpmin=0 / qpmax=69 / qpstep=4 / vbv_maxrate=62500 / vbv_bufsize=78125 / crf_max=0.0 / nal_hrd=none / filler=0 / ip_ratio=1.40 / aq=1:1.00
    Language                                 : English
    Default                                  : Yes
    Forced                                   : No
    Color range                              : Limited
    Color primaries                          : BT.709
    Transfer characteristics                 : BT.709
    Matrix coefficients                      : BT.709
    Statistics Tags Issue                    : mkvmerge v15.0.0 ('Duel with the Devil') 64-bit 2017-11-27 05:46:13 / mkvmerge v15.0.0 ('Duel with the Devil') 64-bit 2017-11-27 05:46:13 / UTC 2017-11-17T14:46:43Z
    FromStats_BitRate                        : 8279130
    FromStats_Duration                       : 01:56:34.196000000
    FromStats_FrameCount                     : 167693
    FromStats_StreamSize                     : 7238232841

    Audio #1
    ID                                       : 2
    Format                                   : AC-3
    Format/Info                              : Audio Coding 3
    Format settings, Endianness              : Big
    Codec ID                                 : A_AC3
    Duration                                 : 1 h 56 min
    Bit rate mode                            : Constant
    Bit rate                                 : 192 kb/s
    Channel(s)                               : 2 channels
    Channel positions                        : Front: L R
    Sampling rate                            : 48.0 kHz
    Frame rate                               : 31.250 FPS (1536 SPF)
    Bit depth                                : 16 bits
    Compression mode                         : Lossy
    Delay relative to video                  : 400 ms
    Stream size                              : 160 MiB (2%)
    Title                                    : Latino-AC3
    Language                                 : Spanish
    Service kind                             : Complete Main
    Default                                  : Yes
    Forced                                   : No
    Statistics Tags Issue                    : mkvmerge v15.0.0 ('Duel with the Devil') 64-bit 2017-11-27 05:46:13 / mkvmerge v15.0.0 ('Duel with the Devil') 64-bit 2017-11-27 05:46:13 / UTC 2017-11-17T14:46:43Z
    FromStats_BitRate                        : 192000
    FromStats_Duration                       : 01:56:33.664000000
    FromStats_FrameCount                     : 218552
    FromStats_StreamSize                     : 167847936

    Audio #2
    ID                                       : 3
    Format                                   : AC-3
    Format/Info                              : Audio Coding 3
    Format settings, Endianness              : Big
    Codec ID                                 : A_AC3
    Duration                                 : 1 h 56 min
    Bit rate mode                            : Constant
    Bit rate                                 : 640 kb/s
    Channel(s)                               : 6 channels
    Channel positions                        : Front: L C R, Side: L R, LFE
    Sampling rate                            : 48.0 kHz
    Frame rate                               : 31.250 FPS (1536 SPF)
    Bit depth                                : 16 bits
    Compression mode                         : Lossy
    Stream size                              : 534 MiB (7%)
    Title                                    : Ingles-AC3
    Language                                 : English
    Service kind                             : Complete Main
    Default                                  : No
    Forced                                   : No
    Statistics Tags Issue                    : mkvmerge v15.0.0 ('Duel with the Devil') 64-bit 2017-11-27 05:46:13 / mkvmerge v15.0.0 ('Duel with the Devil') 64-bit 2017-11-27 05:46:13 / UTC 2017-11-17T14:46:43Z
    FromStats_BitRate                        : 640000
    FromStats_Duration                       : 01:56:34.208000000
    FromStats_FrameCount                     : 218569
    FromStats_StreamSize                     : 559536640

    Text #1
    ID                                       : 4
    Format                                   : PGS
    Muxing mode                              : zlib
    Codec ID                                 : S_HDMV/PGS
    Codec ID/Info                            : Picture based subtitle format used on BDs/HD-DVDs
    Language                                 : English
    Default                                  : No
    Forced                                   : No
    Statistics Tags Issue                    : mkvmerge v15.0.0 ('Duel with the Devil') 64-bit 2017-11-27 05:46:13 / mkvmerge v15.0.0 ('Duel with the Devil') 64-bit 2017-11-27 05:46:13 / UTC 2017-11-17T14:46:43Z
    FromStats_BitRate                        : 27899
    FromStats_Duration                       : 01:56:27.730000000
    FromStats_FrameCount                     : 2274
    FromStats_StreamSize                     : 24369570

    Text #2
    ID                                       : 5
    Format                                   : PGS
    Muxing mode                              : zlib
    Codec ID                                 : S_HDMV/PGS
    Codec ID/Info                            : Picture based subtitle format used on BDs/HD-DVDs
    Language                                 : Spanish
    Default                                  : No
    Forced                                   : No
    Statistics Tags Issue                    : mkvmerge v15.0.0 ('Duel with the Devil') 64-bit 2017-11-27 05:46:13 / mkvmerge v15.0.0 ('Duel with the Devil') 64-bit 2017-11-27 05:46:13 / UTC 2017-11-17T14:46:43Z
    FromStats_BitRate                        : 28878
    FromStats_Duration                       : 01:56:27.730000000
    FromStats_FrameCount                     : 2296
    FromStats_StreamSize                     : 25224037

    Menu
    00:00:00.000                             : :"What Would You Do If Released?"
    00:02:06.960                             : :Main Titles; Seeing Ramon
    00:05:10.310                             : :Poker School
    00:11:16.342                             : :"What's The Target?"
    00:14:27.033                             : :Lunch With Reuben
    00:18:27.440                             : :The Malloy Twins; Livingston
    00:20:27.560                             : :Basher; Yen
    00:23:10.222                             : :Saul
    00:25:57.222                             : :Linus
    00:28:17.029                             : :Danny Lays Out The Plan
    00:33:35.180                             : :Casino Reconnaissance
    00:39:39.544                             : :Frank Buys The Vans
    00:42:34.719                             : :"Tell Me About Benedict."
    00:44:30.001                             : :Tess
    00:48:44.755                             : :Tess And Danny Catch Up
    00:54:00.904                             : :Xanadu Implosion
    00:56:36.226                             : :They Need A Pinch
    00:58:18.495                             : :Stealing The Pinch
    01:01:52.709                             : :Danny's Out
    01:04:02.505                             : :Rusty Advises Linus
    01:05:27.257                             : :Fight Night
    01:08:31.274                             : :The Man From The N.G.C.
    01:13:20.229                             : :Whitejack
    01:16:23.579                             : :On The Inside
    01:19:30.099                             : :Somebody Call A Doctor
    01:22:34.616                             : :We're Set;" Lights Out
    01:25:11.607                             : :In The Vault
    01:29:34.035                             : :Calling Benedict
    01:33:22.597                             : :Rusty States The Terms
    01:35:27.889                             : :Swat Team Arrives
    01:39:16.117                             : :Benedict Figures It Out
    01:41:32.086                             : :Benedict Grills Danny
    01:44:10.244                             : :"Someone's Always Watching."
    01:49:12.546                             : :Liar And Thief
    01:51:33.854                             : :End Titles

  • Peso: 7.44 GiB

Sinopsis

Danny Ocean es un carismático ladrón que, tan sólo 24 horas después de cumplir una larga condena en prisión, ya está planeando su próximo delito. Su objetivo: realizar el mayor atraco de casinos de la historia. Para ello formará un equipo de once hombres, cada uno de ellos el mejor en su campo. Sin embargo surgirá un problema inesperado: el dueño de los locales, Terry Benedic, está saliendo con Tess, su ex-mujer.

Ficha técnica

Video trailer de la película

Enlaces de descarga

Rip de Bluray

Descargar Ocean’s Eleven. Hagan juego (2001) Full 1080p Latino




Aportes de DPeliculasHDmega la pass es:dpeliculashdmega.org Aportes de CinemaniaHD la pass es:cinemaniahdd.com

Películas relacionadas

Comentarios 4
  • Tio Higuera - 08 enero, 2018

    Muy buena, gracias.

  • Seiyayin - 05 diciembre, 2017

    Esperando con ansias las demás continuaciones de esta peli 🙂

  • Jonna - 28 noviembre, 2017

    Subirán las otras 2? Muchas gracias

    • Dpelis2 - 28 noviembre, 2017

      Esa es la idea amigo.