Ocean’s 8 las estafadoras (2018) 1080p Latino

949 vistas
1 estrella2 estrellas3 estrellas4 estrellas5 estrellas (6 votos, promedio: 3,67 de 5)
Cargando…

Información de Ocean’s 8 las estafadoras (2018) 1080p Latino

Datos de la película

  • Calidad: 1080p
  • Audio: Español Latino AC3 5.1 BLURAY - Ingles AC3 5.1 BLURAY
  • Subtitulos: Español Latino SRT- FORZADOS SRT
  • Resolución: 1920x808p
  • Formato: MKV
  • Codec: H.264
  • Encoder: Dracarys
  • Mediainfo: Clic para Mostrar Datos Ver
  • Format                                   : Matroska
    Format version                           : Version 4 / Version 2
    File size                                : 3.59 GiB
    Duration                                 : 1 h 50 min
    Overall bit rate                         : 4 662 kb/s
    Movie name                               : CinemaniaHDD.net
    Encoded date                             : UTC 2018-08-29 05:53:45 / UTC 2018-08-29T00:32:56Z
    Writing application                      : mkvmerge v15.0.0 ('Duel with the Devil') 64-bit
    Writing library                          : libebml v1.3.5 + libmatroska v1.4.5 / Lavf57.7.2

    Video
    ID                                       : 1
    Format                                   : AVC
    Format/Info                              : Advanced Video Codec
    Format profile                           : High@L4.1
    Format settings                          : CABAC / 5 Ref Frames
    Format settings, CABAC                   : Yes
    Format settings, RefFrames               : 5 frames
    Codec ID                                 : V_MPEG4/ISO/AVC
    Duration                                 : 1 h 50 min
    Bit rate                                 : 3 289 kb/s
    Nominal bit rate                         : 3 500 kb/s
    Width                                    : 1 920 pixels
    Height                                   : 808 pixels
    Display aspect ratio                     : 2.40:1
    Frame rate mode                          : Constant
    Frame rate                               : 23.976 (24000/1001) FPS
    Color space                              : YUV
    Chroma subsampling                       : 4:2:0
    Bit depth                                : 8 bits
    Scan type                                : Progressive
    Bits/(Pixel*Frame)                       : 0.088
    Stream size                              : 2.53 GiB (71%)
    Title                                    : Ocean's 8 las estafadoras (2018) 1080p Latino
    Writing library                          : x264 core 148 r2708 86b7198
    Encoding settings                        : cabac=1 / ref=5 / deblock=1:0:0 / analyse=0x3:0x113 / me=umh / subme=8 / psy=1 / psy_rd=1.00:0.00 / mixed_ref=1 / me_range=16 / chroma_me=1 / trellis=1 / 8x8dct=1 / cqm=0 / deadzone=21,11 / fast_pskip=1 / chroma_qp_offset=-2 / threads=25 / lookahead_threads=4 / sliced_threads=0 / nr=0 / decimate=1 / interlaced=0 / bluray_compat=0 / constrained_intra=0 / bframes=3 / b_pyramid=2 / b_adapt=2 / b_bias=0 / direct=3 / weightb=1 / open_gop=0 / weightp=2 / keyint=240 / keyint_min=24 / scenecut=40 / intra_refresh=0 / rc_lookahead=50 / rc=abr / mbtree=1 / bitrate=3500 / ratetol=1.0 / qcomp=0.60 / qpmin=0 / qpmax=69 / qpstep=4 / vbv_maxrate=62500 / vbv_bufsize=78125 / nal_hrd=none / filler=0 / ip_ratio=1.40 / aq=1:1.00
    Language                                 : English
    Default                                  : Yes
    Forced                                   : No
    Color range                              : Limited
    Color primaries                          : BT.709
    Transfer characteristics                 : BT.709
    Matrix coefficients                      : BT.709
    Statistics Tags Issue                    : mkvmerge v15.0.0 ('Duel with the Devil') 64-bit 2018-08-29 05:53:45 / mkvmerge v15.0.0 ('Duel with the Devil') 64-bit 2018-08-29 05:53:45 / UTC 2018-08-29T00:32:56Z
    FromStats_BitRate                        : 3379671
    FromStats_Duration                       : 01:50:09.645000000
    FromStats_FrameCount                     : 158473
    FromStats_StreamSize                     : 2792303576

    Audio #1
    ID                                       : 2
    Format                                   : AC-3
    Format/Info                              : Audio Coding 3
    Format settings, Endianness              : Big
    Codec ID                                 : A_AC3
    Duration                                 : 1 h 50 min
    Bit rate mode                            : Constant
    Bit rate                                 : 640 kb/s
    Channel(s)                               : 6 channels
    Channel positions                        : Front: L C R, Side: L R, LFE
    Sampling rate                            : 48.0 kHz
    Frame rate                               : 31.250 FPS (1536 SPF)
    Bit depth                                : 16 bits
    Compression mode                         : Lossy
    Stream size                              : 504 MiB (14%)
    Language                                 : Spanish
    Service kind                             : Complete Main
    Default                                  : Yes
    Forced                                   : No
    Statistics Tags Issue                    : mkvmerge v15.0.0 ('Duel with the Devil') 64-bit 2018-08-29 05:53:45 / mkvmerge v15.0.0 ('Duel with the Devil') 64-bit 2018-08-29 05:53:45 / UTC 2018-08-29T00:32:56Z
    FromStats_BitRate                        : 640000
    FromStats_Duration                       : 01:50:09.696000000
    FromStats_FrameCount                     : 206553
    FromStats_StreamSize                     : 528775680

    Audio #2
    ID                                       : 3
    Format                                   : AC-3
    Format/Info                              : Audio Coding 3
    Format settings, Endianness              : Big
    Codec ID                                 : A_AC3
    Duration                                 : 1 h 50 min
    Bit rate mode                            : Constant
    Bit rate                                 : 640 kb/s
    Channel(s)                               : 6 channels
    Channel positions                        : Front: L C R, Side: L R, LFE
    Sampling rate                            : 48.0 kHz
    Frame rate                               : 31.250 FPS (1536 SPF)
    Bit depth                                : 16 bits
    Compression mode                         : Lossy
    Stream size                              : 504 MiB (14%)
    Language                                 : English
    Service kind                             : Complete Main
    Default                                  : No
    Forced                                   : No
    Statistics Tags Issue                    : mkvmerge v15.0.0 ('Duel with the Devil') 64-bit 2018-08-29 05:53:45 / mkvmerge v15.0.0 ('Duel with the Devil') 64-bit 2018-08-29 05:53:45 / UTC 2018-08-29T00:32:56Z
    FromStats_BitRate                        : 640000
    FromStats_Duration                       : 01:50:08.608000000
    FromStats_FrameCount                     : 206519
    FromStats_StreamSize                     : 528688640

    Text #1
    ID                                       : 4
    Format                                   : UTF-8
    Codec ID                                 : S_TEXT/UTF8
    Codec ID/Info                            : UTF-8 Plain Text
    Title                                    : Forzados
    Language                                 : Spanish
    Default                                  : Yes
    Forced                                   : Yes
    Statistics Tags Issue                    : mkvmerge v15.0.0 ('Duel with the Devil') 64-bit 2018-08-29 05:53:45 / mkvmerge v15.0.0 ('Duel with the Devil') 64-bit 2018-08-29 05:53:45 / UTC 2018-08-29T00:32:56Z
    FromStats_BitRate                        : 3
    FromStats_Duration                       : 01:39:49.557000000
    FromStats_FrameCount                     : 88
    FromStats_StreamSize                     : 2808

    Text #2
    ID                                       : 5
    Format                                   : UTF-8
    Codec ID                                 : S_TEXT/UTF8
    Codec ID/Info                            : UTF-8 Plain Text
    Language                                 : Spanish
    Default                                  : No
    Forced                                   : No
    Statistics Tags Issue                    : mkvmerge v15.0.0 ('Duel with the Devil') 64-bit 2018-08-29 05:53:45 / mkvmerge v15.0.0 ('Duel with the Devil') 64-bit 2018-08-29 05:53:45 / UTC 2018-08-29T00:32:56Z
    FromStats_BitRate                        : 58
    FromStats_Duration                       : 01:49:28.926000000
    FromStats_FrameCount                     : 1642
    FromStats_StreamSize                     : 47630

    Menu
    00:00:00.000                             : :00:00:00.000
    00:11:18.261                             : :00:11:18.261
    00:20:06.747                             : :00:20:06.747
    00:31:37.104                             : :00:31:37.104
    00:41:29.612                             : :00:41:29.612
    00:49:18.914                             : :00:49:18.914
    00:56:22.296                             : :00:56:22.296
    01:05:50.071                             : :01:05:50.071
    01:16:32.546                             : :01:16:32.546
    01:27:01.174                             : :01:27:01.174
    01:35:42.153                             : :01:35:42.153
    01:44:08.784                             : :01:44:08.659

  • Peso: 3.59 GiB

Sinopsis

Debbie, ex-convicta hermana de Danny Ocean será la líder de un nuevo equipo de ladrones profesionales. Con la ayuda de su mano derecha (Blanchett) planearán robar un valioso collar que está en manos de un malvado galerista.

Ficha técnica

Video trailer de la película

Enlaces de descarga

Rip de Bluray

Descargar Ocean’s 8 las estafadoras (2018) 1080p Latino




Aportes de DPeliculasHDmega la pass es:dpeliculashdmega.org Aportes de CinemaniaHD la pass es:cinemaniahdd.com
Guardado en : Acción , Comedia , Crimen , Suspense

Películas relacionadas

  • Hotel Transylvania 3 (2018) WEBDL 1080p Latino

    2018
    Hotel Transylvania 3 (2018) WEBDL 1080p Latino

    0.0 1h 30m 2018

    Nuestra familia de monstruos favorita se embarca en un crucero de lujo para que por fin Drac pueda tomarse...

    Director: Genndy Tartakovsky

    Género: Animación

    Actores: Tara Strong

  • Love on the Sidelines (2016) WEBDL 1080p Latino

    2016
    Love on the Sidelines (2016) WEBDL 1080p Latino

    0.0 1h 24m 2016

    Una joven sin buena suerte que cae en un trabajo como asistente personal de un mariscal de campo estrellado...

    Director: Terry Ingram

    Género: Comedia

    Actores: Victor Zinck Jr.

Comentarios 0