Noche de venganza (2017) 1080p Latino

1.991 vistas
1 estrella2 estrellas3 estrellas4 estrellas5 estrellas (1 votos, promedio: 3,00 de 5)
Cargando…

Información de Noche de venganza (2017) 1080p Latino

Datos de la película

  • Calidad: 1080p
  • Audio: Español Latino AC3 2.0 DVD - Ingles AC3 5.1 BLURAY
  • Subtitulos: Español Latino SRT
  • Resolución: 1920X800p
  • Formato: MKV
  • Codec: H.264
  • Encoder: Dracarys
  • Mediainfo: Clic para Mostrar Datos Ver
  • Format                                   : Matroska
    Format version                           : Version 4 / Version 2
    File size                                : 2.85 GiB
    Duration                                 : 1 h 35 min
    Overall bit rate                         : 4 281 kb/s
    Movie name                               : CinemaniaHDD.com
    Encoded date                             : UTC 2018-01-10 07:43:49 / UTC 2018-01-10T02:40:30Z
    Writing application                      : mkvmerge v15.0.0 ('Duel with the Devil') 64-bit
    Writing library                          : libebml v1.3.5 + libmatroska v1.4.5 / Lavf57.7.2

    Video
    ID                                       : 1
    Format                                   : AVC
    Format/Info                              : Advanced Video Codec
    Format profile                           : High@L4.1
    Format settings                          : CABAC / 5 Ref Frames
    Format settings, CABAC                   : Yes
    Format settings, RefFrames               : 5 frames
    Codec ID                                 : V_MPEG4/ISO/AVC
    Duration                                 : 1 h 35 min
    Bit rate                                 : 3 500 kb/s
    Width                                    : 1 920 pixels
    Height                                   : 800 pixels
    Display aspect ratio                     : 2.40:1
    Frame rate mode                          : Constant
    Frame rate                               : 23.976 (24000/1001) FPS
    Color space                              : YUV
    Chroma subsampling                       : 4:2:0
    Bit depth                                : 8 bits
    Scan type                                : Progressive
    Bits/(Pixel*Frame)                       : 0.095
    Stream size                              : 2.24 GiB (79%)
    Title                                    : Noche de venganza (2017) 1080p Latino
    Writing library                          : x264 core 148 r2708 86b7198
    Encoding settings                        : cabac=1 / ref=5 / deblock=1:0:0 / analyse=0x3:0x113 / me=umh / subme=8 / psy=1 / psy_rd=1.00:0.00 / mixed_ref=1 / me_range=16 / chroma_me=1 / trellis=1 / 8x8dct=1 / cqm=0 / deadzone=21,11 / fast_pskip=1 / chroma_qp_offset=-2 / threads=25 / lookahead_threads=4 / sliced_threads=0 / nr=0 / decimate=1 / interlaced=0 / bluray_compat=0 / constrained_intra=0 / bframes=3 / b_pyramid=2 / b_adapt=2 / b_bias=0 / direct=3 / weightb=1 / open_gop=0 / weightp=2 / keyint=240 / keyint_min=24 / scenecut=40 / intra_refresh=0 / rc_lookahead=50 / rc=abr / mbtree=1 / bitrate=3500 / ratetol=1.0 / qcomp=0.60 / qpmin=0 / qpmax=69 / qpstep=4 / vbv_maxrate=62500 / vbv_bufsize=78125 / nal_hrd=none / filler=0 / ip_ratio=1.40 / aq=1:1.00
    Language                                 : English
    Default                                  : Yes
    Forced                                   : No
    Color range                              : Limited
    Color primaries                          : BT.709
    Transfer characteristics                 : BT.709
    Matrix coefficients                      : BT.709
    Statistics Tags Issue                    : mkvmerge v15.0.0 ('Duel with the Devil') 64-bit 2018-01-10 07:43:49 / mkvmerge v15.0.0 ('Duel with the Devil') 64-bit 2018-01-10 07:43:49 / UTC 2018-01-10T02:40:30Z
    FromStats_BitRate                        : 3446585
    FromStats_Duration                       : 01:35:12.624000000
    FromStats_FrameCount                     : 136966
    FromStats_StreamSize                     : 2461130614

    Audio #1
    ID                                       : 2
    Format                                   : AC-3
    Format/Info                              : Audio Coding 3
    Format settings, Endianness              : Big
    Codec ID                                 : A_AC3
    Duration                                 : 1 h 35 min
    Bit rate mode                            : Constant
    Bit rate                                 : 192 kb/s
    Channel(s)                               : 2 channels
    Channel positions                        : Front: L R
    Sampling rate                            : 48.0 kHz
    Frame rate                               : 31.250 FPS (1536 SPF)
    Bit depth                                : 16 bits
    Compression mode                         : Lossy
    Delay relative to video                  : -5 ms
    Stream size                              : 131 MiB (4%)
    Language                                 : Spanish
    Service kind                             : Complete Main
    Default                                  : Yes
    Forced                                   : No
    Statistics Tags Issue                    : mkvmerge v15.0.0 ('Duel with the Devil') 64-bit 2018-01-10 07:43:49 / mkvmerge v15.0.0 ('Duel with the Devil') 64-bit 2018-01-10 07:43:49 / UTC 2018-01-10T02:40:30Z
    FromStats_BitRate                        : 192000
    FromStats_Duration                       : 01:35:12.416000000
    FromStats_FrameCount                     : 178513
    FromStats_StreamSize                     : 137097984

    Audio #2
    ID                                       : 3
    Format                                   : AC-3
    Format/Info                              : Audio Coding 3
    Format settings, Endianness              : Big
    Codec ID                                 : A_AC3
    Duration                                 : 1 h 35 min
    Bit rate mode                            : Constant
    Bit rate                                 : 640 kb/s
    Channel(s)                               : 6 channels
    Channel positions                        : Front: L C R, Side: L R, LFE
    Sampling rate                            : 48.0 kHz
    Frame rate                               : 31.250 FPS (1536 SPF)
    Bit depth                                : 16 bits
    Compression mode                         : Lossy
    Delay relative to video                  : -5 ms
    Stream size                              : 436 MiB (15%)
    Language                                 : English
    Service kind                             : Complete Main
    Default                                  : No
    Forced                                   : No
    Statistics Tags Issue                    : mkvmerge v15.0.0 ('Duel with the Devil') 64-bit 2018-01-10 07:43:49 / mkvmerge v15.0.0 ('Duel with the Devil') 64-bit 2018-01-10 07:43:49 / UTC 2018-01-10T02:40:30Z
    FromStats_BitRate                        : 640000
    FromStats_Duration                       : 01:35:12.608000000
    FromStats_FrameCount                     : 178519
    FromStats_StreamSize                     : 457008640

    Text
    ID                                       : 4
    Format                                   : UTF-8
    Codec ID                                 : S_TEXT/UTF8
    Codec ID/Info                            : UTF-8 Plain Text
    Language                                 : Spanish
    Default                                  : No
    Forced                                   : No
    Statistics Tags Issue                    : mkvmerge v15.0.0 ('Duel with the Devil') 64-bit 2018-01-10 07:43:49 / mkvmerge v15.0.0 ('Duel with the Devil') 64-bit 2018-01-10 07:43:49 / UTC 2018-01-10T02:40:30Z
    FromStats_BitRate                        : 45
    FromStats_Duration                       : 01:27:55.226000000
    FromStats_FrameCount                     : 1000
    FromStats_StreamSize                     : 29703

    Menu
    00:00:00.000                             : :00:00:00.000
    00:05:26.201                             : :00:05:26.201
    00:11:02.704                             : :00:11:02.704
    00:16:12.930                             : :00:16:12.930
    00:22:34.228                             : :00:22:34.228
    00:28:46.016                             : :00:28:45.933
    00:32:26.027                             : :00:32:26.027
    00:36:32.691                             : :00:36:32.690
    00:41:12.845                             : :00:41:12.845
    00:47:02.403                             : :00:47:02.403
    00:52:18.969                             : :00:52:18.969
    00:57:47.547                             : :00:57:47.547
    01:00:11.024                             : :01:00:11.024
    01:04:05.633                             : :01:04:05.633
    01:09:02.972                             : :01:09:02.972
    01:14:02.438                             : :01:14:02.438
    01:17:14.588                             : :01:17:14.588
    01:21:15.037                             : :01:21:15.037
    01:26:49.371                             : :01:26:49.371
    01:29:10.095                             : :01:29:10.095

     

  • Peso: 2.85 GiB

Sinopsis

Vincent Downs (Fox) es un agente que se encuentra en medio de una red de policías corruptos implicados con el control de un casino. Cuando un atraco sale mal, un grupo de criminales secuestra al hijo adolescente de Vincent. En sólo una noche, él debe salvar a su hijo, evadir una investigación interna de la propia policía y llevar a los secuestradores ante la justicia… Remake del film francés de 2011 “Nuit blanche”.

Ficha técnica

Video trailer de la película

Enlaces de descarga

Rip de Bluray

Descargar Noche de venganza (2017) 1080p Latino




Aportes de DPeliculasHDmega la pass es:dpeliculashdmega.org Aportes de CinemaniaHD la pass es:cinemaniahdd.com
Guardado en : Acción , Crimen , Suspense

Películas relacionadas

Comentarios 0