Noche de juegos (2018) 1080p Latino

956 vistas
1 estrella2 estrellas3 estrellas4 estrellas5 estrellas (Ninguna valoración todavía)
Cargando…

Información de Noche de juegos (2018) 1080p Latino

Datos de la película

  • Calidad: 1080p
  • Audio: Español Latino AC3 5.1 DVD - Ingles AC3 5.1 BLURAY
  • Subtitulos: Español Latino SRT- FORZADOS SRT
  • Resolución: 1920x800p
  • Formato: MKV
  • Codec: H.264
  • Encoder: Dracarys
  • Mediainfo: Clic para Mostrar Datos Ver
  • Format                                   : Matroska
    Format version                           : Version 4 / Version 2
    File size                                : 3.14 GiB
    Duration                                 : 1 h 40 min
    Overall bit rate                         : 4 497 kb/s
    Movie name                               : CinemaniaHDD.com
    Encoded date                             : UTC 2018-05-10 00:41:23 / UTC 2018-05-09T16:12:19Z
    Writing application                      : mkvmerge v15.0.0 ('Duel with the Devil') 64-bit
    Writing library                          : libebml v1.3.5 + libmatroska v1.4.5 / Lavf57.7.2

    Video
    ID                                       : 1
    Format                                   : AVC
    Format/Info                              : Advanced Video Codec
    Format profile                           : High@L4.1
    Format settings                          : CABAC / 5 Ref Frames
    Format settings, CABAC                   : Yes
    Format settings, RefFrames               : 5 frames
    Codec ID                                 : V_MPEG4/ISO/AVC
    Duration                                 : 1 h 40 min
    Bit rate                                 : 3 500 kb/s
    Width                                    : 1 920 pixels
    Height                                   : 800 pixels
    Display aspect ratio                     : 2.40:1
    Frame rate mode                          : Constant
    Frame rate                               : 23.976 (24000/1001) FPS
    Color space                              : YUV
    Chroma subsampling                       : 4:2:0
    Bit depth                                : 8 bits
    Scan type                                : Progressive
    Bits/(Pixel*Frame)                       : 0.095
    Stream size                              : 2.37 GiB (75%)
    Title                                    : Noche de juegos (2018) 1080p Latino
    Writing library                          : x264 core 148 r2708 86b7198
    Encoding settings                        : cabac=1 / ref=5 / deblock=1:0:0 / analyse=0x3:0x113 / me=umh / subme=8 / psy=1 / psy_rd=1.00:0.00 / mixed_ref=1 / me_range=16 / chroma_me=1 / trellis=1 / 8x8dct=1 / cqm=0 / deadzone=21,11 / fast_pskip=1 / chroma_qp_offset=-2 / threads=25 / lookahead_threads=4 / sliced_threads=0 / nr=0 / decimate=1 / interlaced=0 / bluray_compat=0 / constrained_intra=0 / bframes=3 / b_pyramid=2 / b_adapt=2 / b_bias=0 / direct=3 / weightb=1 / open_gop=0 / weightp=2 / keyint=240 / keyint_min=24 / scenecut=40 / intra_refresh=0 / rc_lookahead=50 / rc=abr / mbtree=1 / bitrate=3500 / ratetol=1.0 / qcomp=0.60 / qpmin=0 / qpmax=69 / qpstep=4 / vbv_maxrate=62500 / vbv_bufsize=78125 / nal_hrd=none / filler=0 / ip_ratio=1.40 / aq=1:1.00
    Language                                 : English
    Default                                  : Yes
    Forced                                   : No
    Color range                              : Limited
    Color primaries                          : BT.709
    Transfer characteristics                 : BT.709
    Matrix coefficients                      : BT.709
    Statistics Tags Issue                    : mkvmerge v15.0.0 ('Duel with the Devil') 64-bit 2018-05-10 00:41:23 / mkvmerge v15.0.0 ('Duel with the Devil') 64-bit 2018-05-10 00:41:23 / UTC 2018-05-09T16:12:19Z
    FromStats_BitRate                        : 3470322
    FromStats_Duration                       : 01:40:05.708000000
    FromStats_FrameCount                     : 143993
    FromStats_StreamSize                     : 2605218145

    Audio #1
    ID                                       : 2
    Format                                   : AC-3
    Format/Info                              : Audio Coding 3
    Format settings, Endianness              : Big
    Codec ID                                 : A_AC3
    Duration                                 : 1 h 40 min
    Bit rate mode                            : Constant
    Bit rate                                 : 384 kb/s
    Channel(s)                               : 6 channels
    Channel positions                        : Front: L C R, Side: L R, LFE
    Sampling rate                            : 48.0 kHz
    Frame rate                               : 31.250 FPS (1536 SPF)
    Bit depth                                : 16 bits
    Compression mode                         : Lossy
    Delay relative to video                  : -5 ms
    Stream size                              : 275 MiB (9%)
    Language                                 : Spanish
    Service kind                             : Complete Main
    Default                                  : Yes
    Forced                                   : No
    Statistics Tags Issue                    : mkvmerge v15.0.0 ('Duel with the Devil') 64-bit 2018-05-10 00:41:23 / mkvmerge v15.0.0 ('Duel with the Devil') 64-bit 2018-05-10 00:41:23 / UTC 2018-05-09T16:12:19Z
    FromStats_BitRate                        : 384000
    FromStats_Duration                       : 01:40:05.824000000
    FromStats_FrameCount                     : 187682
    FromStats_StreamSize                     : 288279552

    Audio #2
    ID                                       : 3
    Format                                   : AC-3
    Format/Info                              : Audio Coding 3
    Format settings, Endianness              : Big
    Codec ID                                 : A_AC3
    Duration                                 : 1 h 40 min
    Bit rate mode                            : Constant
    Bit rate                                 : 640 kb/s
    Channel(s)                               : 6 channels
    Channel positions                        : Front: L C R, Side: L R, LFE
    Sampling rate                            : 48.0 kHz
    Frame rate                               : 31.250 FPS (1536 SPF)
    Bit depth                                : 16 bits
    Compression mode                         : Lossy
    Delay relative to video                  : -5 ms
    Stream size                              : 458 MiB (14%)
    Language                                 : English
    Service kind                             : Complete Main
    Default                                  : No
    Forced                                   : No
    Statistics Tags Issue                    : mkvmerge v15.0.0 ('Duel with the Devil') 64-bit 2018-05-10 00:41:23 / mkvmerge v15.0.0 ('Duel with the Devil') 64-bit 2018-05-10 00:41:23 / UTC 2018-05-09T16:12:19Z
    FromStats_BitRate                        : 640000
    FromStats_Duration                       : 01:40:05.728000000
    FromStats_FrameCount                     : 187679
    FromStats_StreamSize                     : 480458240

    Text #1
    ID                                       : 4
    Format                                   : UTF-8
    Codec ID                                 : S_TEXT/UTF8
    Codec ID/Info                            : UTF-8 Plain Text
    Title                                    : SRT-Forzados
    Language                                 : Spanish
    Default                                  : Yes
    Forced                                   : No
    Statistics Tags Issue                    : mkvmerge v15.0.0 ('Duel with the Devil') 64-bit 2018-05-10 00:41:23 / mkvmerge v15.0.0 ('Duel with the Devil') 64-bit 2018-05-10 00:41:23 / UTC 2018-05-09T16:12:19Z
    FromStats_BitRate                        : 2
    FromStats_Duration                       : 01:38:47.010000000
    FromStats_FrameCount                     : 45
    FromStats_StreamSize                     : 1732

    Text #2
    ID                                       : 5
    Format                                   : UTF-8
    Codec ID                                 : S_TEXT/UTF8
    Codec ID/Info                            : UTF-8 Plain Text
    Title                                    : SRT-Completos
    Language                                 : Spanish
    Default                                  : No
    Forced                                   : No
    Statistics Tags Issue                    : mkvmerge v15.0.0 ('Duel with the Devil') 64-bit 2018-05-10 00:41:23 / mkvmerge v15.0.0 ('Duel with the Devil') 64-bit 2018-05-10 00:41:23 / UTC 2018-05-09T16:12:19Z
    FromStats_BitRate                        : 82
    FromStats_Duration                       : 01:39:06.739000000
    FromStats_FrameCount                     : 2066
    FromStats_StreamSize                     : 61181

    Menu
    00:00:00.000                             : :00:00:00.000
    00:10:35.093                             : :00:10:35.093
    00:18:37.116                             : :00:18:37.116
    00:32:24.860                             : :00:32:24.860
    00:42:40.308                             : :00:42:40.308
    00:52:27.353                             : :00:52:27.353
    01:02:01.301                             : :01:02:01.301
    01:11:50.932                             : :01:11:50.932
    01:22:36.743                             : :01:22:36.743
    01:32:54.903                             : :01:32:54.903

  • Peso: 3.14 GiB

Sinopsis

Max y Annie son una pareja que forman parte de un grupo de amigos que queda todas las semanas para una noche de juegos organizada por uno de ellos. En una de esas noches Brooks (Kyle Chandler), el carismático hermano de Max, organiza un misterioso juego en el que sus amigos deberán resolver un asesinato con falsos matones y falsos agentes. Pero, cuando Brooks es secuestrado, los 6 jugadores comienzan a dudar sobre lo que es falso y lo que es real, y se ven inmersos en una noche caótica en la que deberán resolver el caso.

Ficha técnica

Video trailer de la película

Enlaces de descarga

Rip de Bluray

Descargar Noche de juegos (2018) 1080p Latino




Aportes de DPeliculasHDmega la pass es:dpeliculashdmega.org Aportes de CinemaniaHD la pass es:cinemaniahdd.com
Guardado en : Comedia , Crimen , Misterio , Suspense

Películas relacionadas

  • Los Gustos y Los Colores (2018) NF 1080p Latino

    2018
    Los Gustos y Los Colores (2018) NF 1080p Latino

    0.0 1h 35m 2018

    Justo cuando Simone se anima a contarle a su conservadora familia judía que es lesbiana, se siente atraída...

    Director: Myriam Aziza

    Género: Comedia

    Actores: Stéphane Debac

  • The lovers (2017) 1080p Latino

    2017
    The lovers (2017) 1080p Latino

    1.0 1h 37m 2017

    Mary y Michael forman un matrimonio de mediana edad que tras años de rutina ambos tienen un amante,...

    Director: Azazel Jacobs

    Género: 1080p Portada Negra

    Actores: Tyler Ross

  • Lady Bird (2017) Full 1080p Latino

    2017
    Lady Bird (2017) Full 1080p Latino

    5.0 1h 34m 2017

    Sacramento, California, año 2002. Una joven llamada Christine McPherson (Saoirse Ronan), apodada como...

    Director: Jonas Spaccarotelli

    Género: Comedia

    Actores: Tracy Letts

  • Plan de escape (2013) Full 1080p Latino

    2013
    Plan de escape (2013) Full 1080p Latino

    3.0 1h 56m 2013

    El experto en seguridad Ray Breslin prueba sus teorías poco convencionales en diseño de prisiones elaborando...

    Director: Mikael Håfström

    Género: Acción

    Actores: Vinnie Jones

Comentarios 0