Man on a Ledge (2012) Full 1080p Latino

1.246 vistas
1 estrella2 estrellas3 estrellas4 estrellas5 estrellas (3 votos, promedio: 3,33 de 5)
Cargando…

Información de Man on a Ledge (2012) Full 1080p Latino

Datos de la película

  • Calidad: Full 1080p
  • Audio: Español Latino AC3 5.1 BLURAY - Ingles DTS 5.1 BLURAY
  • Subtitulos: Español Latino PGS - Ingles PGS
  • Resolución: 1920x1080p
  • Formato: MKV
  • Codec: H.264
  • Encoder: Dracarys
  • Mediainfo: Clic para Mostrar Datos Ver
  • Format                                   : Matroska
    Format version                           : Version 4 / Version 2
    File size                                : 7.11 GiB
    Duration                                 : 1 h 42 min
    Overall bit rate                         : 9 937 kb/s
    Movie name                               : CinemaniaHDD.net
    Encoded date                             : UTC 2018-09-19 02:50:50 / UTC 2018-09-18T10:56:07Z
    Writing application                      : mkvmerge v15.0.0 ('Duel with the Devil') 64-bit
    Writing library                          : libebml v1.3.5 + libmatroska v1.4.5 / Lavf57.7.2

    Video
    ID                                       : 1
    Format                                   : AVC
    Format/Info                              : Advanced Video Codec
    Format profile                           : High@L4.1
    Format settings                          : CABAC / 4 Ref Frames
    Format settings, CABAC                   : Yes
    Format settings, RefFrames               : 4 frames
    Codec ID                                 : V_MPEG4/ISO/AVC
    Duration                                 : 1 h 42 min
    Bit rate                                 : 7 590 kb/s
    Width                                    : 1 920 pixels
    Height                                   : 1 080 pixels
    Display aspect ratio                     : 16:9
    Frame rate mode                          : Constant
    Frame rate                               : 23.976 (24000/1001) FPS
    Color space                              : YUV
    Chroma subsampling                       : 4:2:0
    Bit depth                                : 8 bits
    Scan type                                : Progressive
    Bits/(Pixel*Frame)                       : 0.153
    Stream size                              : 5.43 GiB (76%)
    Title                                    : Man on a Ledge (2012) Full 1080p Latino
    Writing library                          : x264 core 148 r2708 86b7198
    Encoding settings                        : cabac=1 / ref=4 / deblock=1:0:0 / analyse=0x3:0x133 / me=esa / subme=10 / psy=1 / psy_rd=1.00:0.00 / mixed_ref=1 / me_range=24 / chroma_me=1 / trellis=2 / 8x8dct=1 / cqm=0 / deadzone=21,11 / fast_pskip=1 / chroma_qp_offset=-2 / threads=34 / lookahead_threads=5 / sliced_threads=0 / nr=0 / decimate=1 / interlaced=0 / bluray_compat=0 / constrained_intra=0 / bframes=8 / b_pyramid=2 / b_adapt=2 / b_bias=0 / direct=3 / weightb=1 / open_gop=0 / weightp=2 / keyint=240 / keyint_min=24 / scenecut=40 / intra_refresh=0 / rc_lookahead=60 / rc=crf / mbtree=1 / crf=20.0 / qcomp=0.60 / qpmin=0 / qpmax=69 / qpstep=4 / vbv_maxrate=62500 / vbv_bufsize=78125 / crf_max=0.0 / nal_hrd=none / filler=0 / ip_ratio=1.40 / aq=1:1.00
    Language                                 : English
    Default                                  : Yes
    Forced                                   : No
    Color range                              : Limited
    Color primaries                          : BT.709
    Transfer characteristics                 : BT.709
    Matrix coefficients                      : BT.709
    Statistics Tags Issue                    : mkvmerge v15.0.0 ('Duel with the Devil') 64-bit 2018-09-19 02:50:50 / mkvmerge v15.0.0 ('Duel with the Devil') 64-bit 2018-09-19 02:50:50 / UTC 2018-09-18T10:56:07Z
    FromStats_BitRate                        : 7762843
    FromStats_Duration                       : 01:42:23.096000000
    FromStats_FrameCount                     : 147287
    FromStats_StreamSize                     : 5960986801

    Audio #1
    ID                                       : 2
    Format                                   : AC-3
    Format/Info                              : Audio Coding 3
    Format settings, Endianness              : Big
    Codec ID                                 : A_AC3
    Duration                                 : 1 h 42 min
    Bit rate mode                            : Constant
    Bit rate                                 : 640 kb/s
    Channel(s)                               : 6 channels
    Channel positions                        : Front: L C R, Side: L R, LFE
    Sampling rate                            : 48.0 kHz
    Frame rate                               : 31.250 FPS (1536 SPF)
    Bit depth                                : 16 bits
    Compression mode                         : Lossy
    Stream size                              : 469 MiB (6%)
    Language                                 : Spanish
    Service kind                             : Complete Main
    Default                                  : Yes
    Forced                                   : No
    Statistics Tags Issue                    : mkvmerge v15.0.0 ('Duel with the Devil') 64-bit 2018-09-19 02:50:50 / mkvmerge v15.0.0 ('Duel with the Devil') 64-bit 2018-09-19 02:50:50 / UTC 2018-09-18T10:56:07Z
    FromStats_BitRate                        : 640000
    FromStats_Duration                       : 01:42:23.168000000
    FromStats_FrameCount                     : 191974
    FromStats_StreamSize                     : 491453440

    Audio #2
    ID                                       : 3
    Format                                   : DTS
    Format/Info                              : Digital Theater Systems
    Mode                                     : 16
    Format settings, Endianness              : Big
    Codec ID                                 : A_DTS
    Duration                                 : 1 h 42 min
    Bit rate mode                            : Constant
    Bit rate                                 : 1 509 kb/s
    Channel(s)                               : 6 channels
    Channel positions                        : Front: L C R, Side: L R, LFE
    Sampling rate                            : 48.0 kHz
    Frame rate                               : 93.750 FPS (512 SPF)
    Bit depth                                : 24 bits
    Compression mode                         : Lossy
    Stream size                              : 1.08 GiB (15%)
    Language                                 : English
    Default                                  : No
    Forced                                   : No
    Statistics Tags Issue                    : mkvmerge v15.0.0 ('Duel with the Devil') 64-bit 2018-09-19 02:50:50 / mkvmerge v15.0.0 ('Duel with the Devil') 64-bit 2018-09-19 02:50:50 / UTC 2018-09-18T10:56:07Z
    FromStats_BitRate                        : 1509000
    FromStats_Duration                       : 01:42:23.136000000
    FromStats_FrameCount                     : 575919
    FromStats_StreamSize                     : 1158749028

    Text #1
    ID                                       : 4
    Format                                   : PGS
    Muxing mode                              : zlib
    Codec ID                                 : S_HDMV/PGS
    Codec ID/Info                            : Picture based subtitle format used on BDs/HD-DVDs
    Language                                 : English
    Default                                  : No
    Forced                                   : No
    Statistics Tags Issue                    : mkvmerge v15.0.0 ('Duel with the Devil') 64-bit 2018-09-19 02:50:50 / mkvmerge v15.0.0 ('Duel with the Devil') 64-bit 2018-09-19 02:50:50 / UTC 2018-09-18T10:56:07Z
    FromStats_BitRate                        : 42116
    FromStats_Duration                       : 01:35:48.618000000
    FromStats_FrameCount                     : 2830
    FromStats_StreamSize                     : 30263957

    Text #2
    ID                                       : 5
    Format                                   : PGS
    Muxing mode                              : zlib
    Codec ID                                 : S_HDMV/PGS
    Codec ID/Info                            : Picture based subtitle format used on BDs/HD-DVDs
    Language                                 : Spanish
    Default                                  : No
    Forced                                   : No
    Statistics Tags Issue                    : mkvmerge v15.0.0 ('Duel with the Devil') 64-bit 2018-09-19 02:50:50 / mkvmerge v15.0.0 ('Duel with the Devil') 64-bit 2018-09-19 02:50:50 / UTC 2018-09-18T10:56:07Z
    FromStats_BitRate                        : 33292
    FromStats_Duration                       : 01:36:22.610000000
    FromStats_FrameCount                     : 2564
    FromStats_StreamSize                     : 24064986

    Menu
    00:00:00.000                             : :Chapter 1
    00:04:04.745                             : :Chapter 2
    00:08:02.315                             : :Chapter 3
    00:13:43.364                             : :Chapter 4
    00:17:10.029                             : :Chapter 5
    00:25:02.876                             : :Chapter 6
    00:30:20.902                             : :Chapter 7
    00:37:03.430                             : :Chapter 8
    00:44:58.529                             : :Chapter 9
    00:50:51.674                             : :Chapter 10
    00:55:50.013                             : :Chapter 11
    01:00:18.740                             : :Chapter 12
    01:06:13.511                             : :Chapter 13
    01:11:18.816                             : :Chapter 14
    01:15:50.963                             : :Chapter 15
    01:20:46.884                             : :Chapter 16
    01:25:06.935                             : :Chapter 17
    01:32:40.305                             : :Chapter 18

  • Peso: 7.11 GiB

Sinopsis

Nick Cassidy (Sam Worthington), un antiguo agente de policía, se escapa de la cárcel y se dirige al Hotel Roosevelt de Nueva York. Al subirse a la cornisa de uno de los pisos más altos, pone en peligro mucho más que su vida. La ciudad entera está a punto de quedarse paralizada, incluidos ciertos individuos que guardan grandes secretos.

Ficha técnica

Video trailer de la película

Enlaces de descarga

Rip de Bluray

Descargar Man on a Ledge (2012) Full 1080p Latino




Aportes de DPeliculasHDmega la pass es:dpeliculashdmega.org Aportes de CinemaniaHD la pass es:cinemaniahdd.com
Guardado en : Acción , Crimen , Suspense

Películas relacionadas

  • The Night Comes For Us (2018) NF 1080p Latino

    2018
    The Night Comes For Us (2018) NF 1080p Latino

    1.0 2h 1m 2018

    The Night Comes For Us (2018) NF 1080p Latino; Mega, Google Drive. Un antiguo sicario debe proteger a...

    Director: Timo Tjahjanto

    Género: Acción

    Actores: Zack Lee

  • Illang: La brigada del lobo (2018) NF 1080p Latino

    2018
    Illang: La brigada del lobo (2018) NF 1080p Latino

    1.0 2h 19m 2018

    Descargar Illang: La brigada del lobo (2018) NF 1080p Latino; Mega, Google Drive. Basada en el anime...

    Director: Kim Jee-woon

    Género: Acción

    Actores: Shin Eun-soo

  • Mentes poderosas (2018) 1080p Latino

    2018
    Mentes poderosas (2018) 1080p Latino

    1.0 1h 45m 2018

    Descargar Mentes poderosas (2018) 1080p Latino; Mega, Google Drive. Encarcelados en un mundo adulto...

    Director: Jennifer Yuh Nelson

    Género: Ciencia ficción

    Actores: William Walker

  • Paciente Cero (2018) Full 1080p Latino

    2018
    Paciente Cero (2018) Full 1080p Latino

    3.7 1h 26m 2018

    Paciente Cero (2018) Full 1080p Latino; Mega, Google Drive. Tras una pandemia sin precedentes, la Humanidad...

    Director: Stefan Ruzowitzky

    Género: Acción

    Actores: Yumiko Hanasaka

Comentarios 0