Lucy (2014) Full 1080p Latino

1.293 vistas
1 estrella2 estrellas3 estrellas4 estrellas5 estrellas (7 votos, promedio: 4,43 de 5)
Cargando…

Información de Lucy (2014) Full 1080p Latino

Datos de la película

  • Calidad: Full 1080p
  • Audio: Español Latino DTS 5.1 BLURAY - Ingles DTS 5.1 BLURAY
  • Subtitulos: Español Latino PGS - Ingles PGS
  • Resolución: 1920x1080p
  • Formato: MKV
  • Codec: H.264
  • Encoder: Dracarys
  • Mediainfo: Clic para Mostrar Datos Ver
  • Format                                   : Matroska
    Format version                           : Version 2
    File size                                : 3.86 GiB
    Duration                                 : 1 h 29 min
    Overall bit rate                         : 6 181 kb/s
    Movie name                               : CinemaniaHDD.net
    Encoded date                             : UTC 2018-07-05 10:12:01 / UTC 2018-06-30T12:12:55Z
    Writing application                      : mkvmerge v5.7.0 ('The Whirlwind') built on Jul  8 2012 20:08:51
    Writing library                          : libebml v1.2.3 + libmatroska v1.3.0 / Lavf57.7.2

    Video
    ID                                       : 1
    Format                                   : AVC
    Format/Info                              : Advanced Video Codec
    Format profile                           : High@L4.1
    Format settings                          : CABAC / 4 Ref Frames
    Format settings, CABAC                   : Yes
    Format settings, RefFrames               : 4 frames
    Muxing mode                              : Header stripping
    Codec ID                                 : V_MPEG4/ISO/AVC
    Duration                                 : 1 h 29 min
    Bit rate                                 : 3 781 kb/s
    Width                                    : 1 920 pixels
    Height                                   : 1 080 pixels
    Display aspect ratio                     : 16:9
    Frame rate mode                          : Constant
    Frame rate                               : 23.976 (24000/1001) FPS
    Color space                              : YUV
    Chroma subsampling                       : 4:2:0
    Bit depth                                : 8 bits
    Scan type                                : Progressive
    Bits/(Pixel*Frame)                       : 0.076
    Stream size                              : 2.36 GiB (61%)
    Title                                    : Lucy (2014) Full 1080p Latino
    Writing library                          : x264 core 155 r2893 b00bcaf
    Encoding settings                        : cabac=1 / ref=4 / deblock=1:0:0 / analyse=0x3:0x133 / me=esa / subme=10 / psy=1 / psy_rd=1.00:0.00 / mixed_ref=1 / me_range=24 / chroma_me=1 / trellis=2 / 8x8dct=1 / cqm=0 / deadzone=21,11 / fast_pskip=1 / chroma_qp_offset=-2 / threads=24 / lookahead_threads=4 / sliced_threads=0 / nr=0 / decimate=1 / interlaced=0 / bluray_compat=0 / constrained_intra=0 / bframes=8 / b_pyramid=2 / b_adapt=2 / b_bias=0 / direct=3 / weightb=1 / open_gop=0 / weightp=2 / keyint=240 / keyint_min=24 / scenecut=40 / intra_refresh=0 / rc_lookahead=60 / rc=crf / mbtree=1 / crf=20.0 / qcomp=0.60 / qpmin=0 / qpmax=69 / qpstep=4 / vbv_maxrate=62500 / vbv_bufsize=78125 / crf_max=0.0 / nal_hrd=none / filler=0 / ip_ratio=1.40 / aq=1:1.00
    Language                                 : English
    Default                                  : Yes
    Forced                                   : No
    Color range                              : Limited
    Color primaries                          : BT.709
    Transfer characteristics                 : BT.709
    Matrix coefficients                      : BT.709

    Audio #1
    ID                                       : 2
    Format                                   : DTS
    Format/Info                              : Digital Theater Systems
    Mode                                     : 16
    Format settings, Endianness              : Big
    Muxing mode                              : Header stripping
    Codec ID                                 : A_DTS
    Duration                                 : 1 h 29 min
    Bit rate mode                            : Constant
    Bit rate                                 : 768 kb/s
    Channel(s)                               : 6 channels
    Channel positions                        : Front: L C R, Side: L R, LFE
    Sampling rate                            : 48.0 kHz
    Frame rate                               : 93.750 FPS (512 SPF)
    Bit depth                                : 24 bits
    Compression mode                         : Lossy
    Stream size                              : 491 MiB (12%)
    Language                                 : Spanish
    Default                                  : Yes
    Forced                                   : No

    Audio #2
    ID                                       : 3
    Format                                   : DTS
    Format/Info                              : Digital Theater Systems
    Mode                                     : 16
    Format settings, Endianness              : Big
    Muxing mode                              : Header stripping
    Codec ID                                 : A_DTS
    Duration                                 : 1 h 29 min
    Bit rate mode                            : Constant
    Bit rate                                 : 1 509 kb/s
    Channel(s)                               : 6 channels
    Channel positions                        : Front: L C R, Side: L R, LFE
    Sampling rate                            : 48.0 kHz
    Frame rate                               : 93.750 FPS (512 SPF)
    Bit depth                                : 24 bits
    Compression mode                         : Lossy
    Stream size                              : 966 MiB (24%)
    Language                                 : English
    Default                                  : No
    Forced                                   : No

    Text #1
    ID                                       : 4
    Format                                   : PGS
    Muxing mode                              : zlib
    Codec ID                                 : S_HDMV/PGS
    Codec ID/Info                            : Picture based subtitle format used on BDs/HD-DVDs
    Language                                 : English
    Default                                  : No
    Forced                                   : No

    Text #2
    ID                                       : 5
    Format                                   : PGS
    Muxing mode                              : zlib
    Codec ID                                 : S_HDMV/PGS
    Codec ID/Info                            : Picture based subtitle format used on BDs/HD-DVDs
    Language                                 : Spanish
    Default                                  : No
    Forced                                   : No

    Text #3
    ID                                       : 6
    Format                                   : PGS
    Muxing mode                              : zlib
    Codec ID                                 : S_HDMV/PGS
    Codec ID/Info                            : Picture based subtitle format used on BDs/HD-DVDs
    Title                                    : Forzados
    Language                                 : Spanish
    Default                                  : Yes
    Forced                                   : Yes

    Menu
    00:00:00.000                             : :Chapter 1
    00:05:26.368                             : :Chapter 2
    00:08:38.268                             : :Chapter 3
    00:15:45.570                             : :Chapter 4
    00:21:35.753                             : :Chapter 5
    00:26:05.397                             : :Chapter 6
    00:30:27.534                             : :Chapter 7
    00:37:36.254                             : :Chapter 8
    00:41:43.459                             : :Chapter 9
    00:47:32.558                             : :Chapter 10
    00:50:10.716                             : :Chapter 11
    00:55:32.496                             : :Chapter 12
    00:59:36.073                             : :Chapter 13
    01:02:08.099                             : :Chapter 14
    01:04:51.346                             : :Chapter 15
    01:07:14.030                             : :Chapter 16
    01:09:55.817                             : :Chapter 17
    01:12:26.133                             : :Chapter 18
    01:18:50.476                             : :Chapter 19
    01:22:30.946                             : :Chapter 20

  • Peso: 3.86 GiB

Sinopsis

Lucy es una joven obligada a traficar con droga que un día, inesperadamente, absorbe en su sistema los estupefacientes que transporta. Lo sorprendente es que en lugar de ir directa al hospital, las drogas le otorgan una serie de poderes sobrehumanos tales como telequinesis, la cancelación de dolor, y la habilidad de absorber el conocimiento de forma instantánea; poderes que, inevitablemente, cambiarán su vida para siempre.

Ficha técnica

Video trailer de la película

Enlaces de descarga

Rip de Bluray

Descargar Lucy (2014) Full 1080p Latino




Aportes de DPeliculasHDmega la pass es:dpeliculashdmega.org Aportes de CinemaniaHD la pass es:cinemaniahdd.com

Películas relacionadas

  • Paciente Cero (2018) Full 1080p Latino

    2018
    Paciente Cero (2018) Full 1080p Latino

    5.0 1h 26m 2018

    Paciente Cero (2018) Full 1080p Latino; Mega, Google Drive. Tras una pandemia sin precedentes, la Humanidad...

    Director: Stefan Ruzowitzky

    Género: Acción

    Actores: Yumiko Hanasaka

  • Paciente Cero (2018) 1080p Latino

    2018
    Paciente Cero (2018) 1080p Latino

    0.0 1h 26m 2018

    Descargar Paciente Cero (2018) 1080p Latino; Mega, Google Drive. Tras una pandemia sin precedentes, la...

    Director: Stefan Ruzowitzky

    Género: Acción

    Actores: Yumiko Hanasaka

  • El espia que me planto (2018) 1080p Latino

    2018
    El espia que me planto (2018) 1080p Latino

    5.0 1h 57m 2018

    Audrey (Mila Kunis) y Morgan (Kate McKinnon) son dos amigas que viven en Los Ángeles y que un día se...

    Director: Susanna Fogel

    Género: Acción

    Actores: Sam Heughan

  • The Brink (2017) 1080p Latino

    2017
    The Brink (2017) 1080p Latino

    3.0 1h 46m 2017

    Descargar The Brink (2017) 1080p Latino; Mega, Google Drive. El detective Tung está decidido a atrapar...

    Director: Jonathan Li

    Género: Acción

    Actores: Zhang Jin

  • Escape Plan 2: Hades (2018) 1080p Latino

    2018
    Escape Plan 2: Hades (2018) 1080p Latino

    3.1 1h 33m 2018

    Una continuación de la película de 2013 sobre el experto en seguridad penitenciaria Ray Breslin, que...

    Director: Steven C. Miller

    Género: Acción

    Actores: Zeeko Zaki

Comentarios 0