Los Pitufos: La aldea escondida (2017) WEBDL 1080p Latino

1.911 vistas
1 estrella2 estrellas3 estrellas4 estrellas5 estrellas (Ninguna valoración todavía)
Cargando…

Información de Los Pitufos: La aldea escondida (2017) WEBDL 1080p Latino

Datos de la película

  • Calidad: WEBDL
  • Audio: Español Latino AC3 2.0 iTunes - Ingles AC3 5.1 iTunes
  • Subtitulos: Español Latino SRT - Ingles SRT
  • Resolución: 1920x01028p
  • Formato: MKV
  • Codec: H.264
  • Encoder: Dpelis
  • Mediainfo: Clic para Mostrar Datos Ver
  • Smurfs The Lost Village 2017 1080p WEBDL Latino.mkv
    Format                      : Matroska
    Format version              : Version 4 / Version 2
    File size                   : 3.60 GiB
    Duration                    : 1 h 29 min
    Overall bit rate            : 5 735 kb/s
    Movie name                  : DPeliculasHDMega.ORG
    Encoded date                : UTC 2017-06-20 06:42:27
    Writing application         : mkvmerge v10.0.0 ('To Drown In You') 64bit
    Writing library             : libebml v1.3.4 + libmatroska v1.4.5

    Video
    ID                          : 1
    Format                      : AVC
    Format/Info                 : Advanced Video Codec
    Format profile              : High@L4
    Format settings, CABAC      : Yes
    Format settings, ReFrames   : 4 frames
    Codec ID                    : V_MPEG4/ISO/AVC
    Duration                    : 1 h 29 min
    Bit rate                    : 5 092 kb/s
    Width                       : 1 920 pixels
    Height                      : 1 028 pixels
    Display aspect ratio        : 1.85:1
    Frame rate mode             : Constant
    Frame rate                  : 23.976 FPS
    Color space                 : YUV
    Chroma subsampling          : 4:2:0
    Bit depth                   : 8 bits
    Scan type                   : Progressive
    Bits/(Pixel*Frame)          : 0.108
    Stream size                 : 3.19 GiB (89%)
    Language                    : English
    Default                     : Yes
    Forced                      : No
    Color range                 : Limited
    Color primaries             : BT.709
    Transfer characteristics    : BT.709
    Matrix coefficients         : BT.709

    Audio #1
    ID                          : 2
    Format                      : AC-3
    Format/Info                 : Audio Coding 3
    Format settings, Endianness : Big
    Codec ID                    : A_AC3
    Duration                    : 1 h 29 min
    Bit rate mode               : Constant
    Bit rate                    : 256 kb/s
    Channel(s)                  : 2 channels
    Channel positions           : Front: L R
    Sampling rate               : 48.0 kHz
    Frame rate                  : 31.250 FPS (1536 spf)
    Bit depth                   : 16 bits
    Compression mode            : Lossy
    Stream size                 : 164 MiB (4%)
    Language                    : Spanish
    Service kind                : Complete Main
    Default                     : Yes
    Forced                      : No

    Audio #2
    ID                          : 3
    Format                      : AC-3
    Format/Info                 : Audio Coding 3
    Format settings, Endianness : Big
    Codec ID                    : A_AC3
    Duration                    : 1 h 29 min
    Bit rate mode               : Constant
    Bit rate                    : 384 kb/s
    Channel(s)                  : 6 channels
    Channel positions           : Front: L C R, Side: L R, LFE
    Sampling rate               : 48.0 kHz
    Frame rate                  : 31.250 FPS (1536 spf)
    Bit depth                   : 16 bits
    Compression mode            : Lossy
    Stream size                 : 247 MiB (7%)
    Language                    : English
    Service kind                : Complete Main
    Default                     : No
    Forced                      : No

    Text #1
    ID                          : 4
    Format                      : UTF-8
    Codec ID                    : S_TEXT/UTF8
    Codec ID/Info               : UTF-8 Plain Text
    Duration                    : 1 h 28 min
    Bit rate                    : 58 b/s
    Count of elements           : 1079
    Stream size                 : 37.7 KiB (0%)
    Language                    : Spanish
    Default                     : Yes
    Forced                      : No

    Text #2
    ID                          : 5
    Format                      : UTF-8
    Codec ID                    : S_TEXT/UTF8
    Codec ID/Info               : UTF-8 Plain Text
    Duration                    : 1 h 28 min
    Bit rate                    : 0 b/s
    Count of elements           : 4
    Stream size                 : 197 Bytes (0%)
    Title                       : FORZADOS
    Language                    : Spanish
    Default                     : No
    Forced                      : No

    Text #3
    ID                          : 6
    Format                      : UTF-8
    Codec ID                    : S_TEXT/UTF8
    Codec ID/Info               : UTF-8 Plain Text
    Duration                    : 1 h 25 min
    Bit rate                    : 54 b/s
    Count of elements           : 1094
    Stream size                 : 34.1 KiB (0%)
    Language                    : English
    Default                     : No
    Forced                      : No

    Menu
    00:00:00.000                : en:1
    00:08:49.446                : en:2
    00:11:04.413                : en:3
    00:14:34.748                : en:4
    00:21:22.071                : en:5
    00:27:26.143                : en:6
    00:30:34.538                : en:7
    00:36:50.080                : en:8
    00:42:42.348                : en:9
    00:45:59.670                : en:10
    00:50:36.947                : en:11
    00:57:04.584                : en:12
    01:02:36.290                : en:13
    01:09:08.764                : en:14
    01:14:40.470                : en:15
    01:19:35.472                : en:16

  • Peso: 3.60 GB

Sinopsis

En la aldea de los pitufos, cada uno de sus habitantes tiene un propósito: Pitufo Panadero hace pan y pasteles, Pitufo Vanidoso se dedica a mirarse en el espejo, Pitufo Gruñón gruñe constantemente y Papá Pitufo se ocupa de dirigir. Pero Pitufina no parece tener un propósito claro, así que decide salir a descubrirlo.

Cuando se adentra por primera vez en el Bosque Encantado, un territorio inexplorado y totalmente prohibido, ella y sus hermanos los pitufos Filósofo, Valiente y Torpe emprenderán un alocado viaje lleno de acción, peligro y descubrimientos, que los conducirá al mayor misterio de la historia Pitufa, y que cambiará sus vidas para siempre porque descubrirán que no están tan solos como pensaban. Eso sí, deberán tener mucho cuidado, porque su eterno enemigo, el malvado hechicero Gargamel está siguiéndoles de cerca.

Esta nueva entrega de la saga, completamente hecha en animación por ordenador, está dirigida por Kelly Abury (Shrek 2, Gnomeo & Julieta, Spirit: El corcel indomable). En la versión original cuenta con las voces de los actores Mandy Patinkin (Homeland), Demi Lovato (Glee), Jack McBrayer (Rockefeller Plaza), Danny Pudi (Star Trek: Más allá), Rainn Wilson (The Office), Joe Manganiello (Magic Mike XXL) y y Julia Roberts (Money monster). En castellano las voces son de los televisivos Eva Hache y Luis Piedrahita, además de los actores Macarena García (Blancanieves) y Jordi Sánchez (La que se avecina).

Ficha técnica

Video trailer de la película

Enlaces de descarga

Descargar Los Pitufos: La aldea escondida (2017) WEBDL 1080p Latino
Aportes de DPeliculasHDmega la pass es:dpeliculashdmega.org Aportes de CinemaniaHD la pass es:cinemaniahdd.com
Guardado en : Animación , Aventura , Comedia , Familia

Películas relacionadas

  • Los Gustos y Los Colores (2018) NF 1080p Latino

    2018
    Los Gustos y Los Colores (2018) NF 1080p Latino

    0.0 1h 35m 2018

    Justo cuando Simone se anima a contarle a su conservadora familia judía que es lesbiana, se siente atraída...

    Director: Myriam Aziza

    Género: Comedia

    Actores: Stéphane Debac

  • The lovers (2017) 1080p Latino

    2017
    The lovers (2017) 1080p Latino

    1.0 1h 37m 2017

    Mary y Michael forman un matrimonio de mediana edad que tras años de rutina ambos tienen un amante,...

    Director: Azazel Jacobs

    Género: 1080p Portada Negra

    Actores: Tyler Ross

  • Lady Bird (2017) Full 1080p Latino

    2017
    Lady Bird (2017) Full 1080p Latino

    5.0 1h 34m 2017

    Sacramento, California, año 2002. Una joven llamada Christine McPherson (Saoirse Ronan), apodada como...

    Director: Jonas Spaccarotelli

    Género: Comedia

    Actores: Tracy Letts

  • No me las toquen (2018) 1080p Latino

    2018
    No me las toquen (2018) 1080p Latino

    3.0 1h 42m 2018

    Cuando una madre y dos padres descubren que sus respectivas hijas han hecho un pacto para perder la virginidad...

    Director: Kay Cannon

    Género: 1080p Portada Negra

    Actores: T.C. Carter

Comentarios 0