Los elegidos de la gloria (1983) Full 1080p Latino

1.057 vistas
1 estrella2 estrellas3 estrellas4 estrellas5 estrellas (3 votos, promedio: 3,67 de 5)
Cargando…

Información de Los elegidos de la gloria (1983) Full 1080p Latino

Datos de la película

  • Calidad: Full 1080p
  • Audio: Español Latino AC3 1.0 BLURAY - Ingles AC3 5.1 BLURAY
  • Subtitulos: Español Latino PGS - Ingles PGS
  • Resolución: 1920x1080p
  • Formato: MKV
  • Codec: H.264
  • Encoder: Dracarys
  • Mediainfo: Clic para Mostrar Datos Ver
  • Format                                   : Matroska
    Format version                           : Version 4 / Version 2
    File size                                : 15.7 GiB
    Duration                                 : 3 h 12 min
    Overall bit rate                         : 11.6 Mb/s
    Movie name                               : CinemaniaHDD.net
    Encoded date                             : UTC 2018-09-19 02:02:56 / UTC 2018-09-18T02:06:27Z
    Writing application                      : mkvmerge v15.0.0 ('Duel with the Devil') 64-bit
    Writing library                          : libebml v1.3.5 + libmatroska v1.4.5 / Lavf57.7.2

    Video
    ID                                       : 1
    Format                                   : AVC
    Format/Info                              : Advanced Video Codec
    Format profile                           : High@L4.1
    Format settings                          : CABAC / 4 Ref Frames
    Format settings, CABAC                   : Yes
    Format settings, RefFrames               : 4 frames
    Codec ID                                 : V_MPEG4/ISO/AVC
    Duration                                 : 3 h 12 min
    Bit rate                                 : 10.6 Mb/s
    Width                                    : 1 920 pixels
    Height                                   : 1 080 pixels
    Display aspect ratio                     : 16:9
    Frame rate mode                          : Constant
    Frame rate                               : 23.976 (24000/1001) FPS
    Color space                              : YUV
    Chroma subsampling                       : 4:2:0
    Bit depth                                : 8 bits
    Scan type                                : Progressive
    Bits/(Pixel*Frame)                       : 0.212
    Stream size                              : 14.2 GiB (91%)
    Title                                    : Los elegidos de la gloria (1983) Full 1080p Latino
    Writing library                          : x264 core 148 r2708 86b7198
    Encoding settings                        : cabac=1 / ref=4 / deblock=1:0:0 / analyse=0x3:0x133 / me=esa / subme=10 / psy=1 / psy_rd=1.00:0.00 / mixed_ref=1 / me_range=24 / chroma_me=1 / trellis=2 / 8x8dct=1 / cqm=0 / deadzone=21,11 / fast_pskip=1 / chroma_qp_offset=-2 / threads=34 / lookahead_threads=5 / sliced_threads=0 / nr=0 / decimate=1 / interlaced=0 / bluray_compat=0 / constrained_intra=0 / bframes=8 / b_pyramid=2 / b_adapt=2 / b_bias=0 / direct=3 / weightb=1 / open_gop=0 / weightp=2 / keyint=240 / keyint_min=24 / scenecut=40 / intra_refresh=0 / rc_lookahead=60 / rc=crf / mbtree=1 / crf=20.0 / qcomp=0.60 / qpmin=0 / qpmax=69 / qpstep=4 / vbv_maxrate=62500 / vbv_bufsize=78125 / crf_max=0.0 / nal_hrd=none / filler=0 / ip_ratio=1.40 / aq=1:1.00
    Language                                 : English
    Default                                  : Yes
    Forced                                   : No
    Color range                              : Limited
    Color primaries                          : BT.709
    Transfer characteristics                 : BT.709
    Matrix coefficients                      : BT.709
    Statistics Tags Issue                    : mkvmerge v15.0.0 ('Duel with the Devil') 64-bit 2018-09-19 02:02:56 / mkvmerge v15.0.0 ('Duel with the Devil') 64-bit 2018-09-19 02:02:56 / UTC 2018-09-18T02:06:27Z
    FromStats_BitRate                        : 10769958
    FromStats_Duration                       : 03:12:43.719000000
    FromStats_FrameCount                     : 277252
    FromStats_StreamSize                     : 15567596123

    Audio #1
    ID                                       : 2
    Format                                   : AC-3
    Format/Info                              : Audio Coding 3
    Format settings, Endianness              : Big
    Codec ID                                 : A_AC3
    Duration                                 : 3 h 12 min
    Bit rate mode                            : Constant
    Bit rate                                 : 192 kb/s
    Channel(s)                               : 1 channel
    Channel positions                        : Front: C
    Sampling rate                            : 48.0 kHz
    Frame rate                               : 31.250 FPS (1536 SPF)
    Bit depth                                : 16 bits
    Compression mode                         : Lossy
    Stream size                              : 265 MiB (2%)
    Language                                 : Spanish
    Service kind                             : Complete Main
    Default                                  : Yes
    Forced                                   : No
    Statistics Tags Issue                    : mkvmerge v15.0.0 ('Duel with the Devil') 64-bit 2018-09-19 02:02:56 / mkvmerge v15.0.0 ('Duel with the Devil') 64-bit 2018-09-19 02:02:56 / UTC 2018-09-18T02:06:27Z
    FromStats_BitRate                        : 192000
    FromStats_Duration                       : 03:12:43.776000000
    FromStats_FrameCount                     : 361368
    FromStats_StreamSize                     : 277530624

    Audio #2
    ID                                       : 3
    Format                                   : AC-3
    Format/Info                              : Audio Coding 3
    Format settings, Endianness              : Big
    Codec ID                                 : A_AC3
    Duration                                 : 3 h 12 min
    Bit rate mode                            : Constant
    Bit rate                                 : 640 kb/s
    Channel(s)                               : 6 channels
    Channel positions                        : Front: L C R, Side: L R, LFE
    Sampling rate                            : 48.0 kHz
    Frame rate                               : 31.250 FPS (1536 SPF)
    Bit depth                                : 16 bits
    Compression mode                         : Lossy
    Stream size                              : 882 MiB (6%)
    Language                                 : English
    Service kind                             : Complete Main
    Default                                  : No
    Forced                                   : No
    Statistics Tags Issue                    : mkvmerge v15.0.0 ('Duel with the Devil') 64-bit 2018-09-19 02:02:56 / mkvmerge v15.0.0 ('Duel with the Devil') 64-bit 2018-09-19 02:02:56 / UTC 2018-09-18T02:06:27Z
    FromStats_BitRate                        : 640000
    FromStats_Duration                       : 03:12:44.736000000
    FromStats_FrameCount                     : 361398
    FromStats_StreamSize                     : 925178880

    Text #1
    ID                                       : 4
    Format                                   : PGS
    Muxing mode                              : zlib
    Codec ID                                 : S_HDMV/PGS
    Codec ID/Info                            : Picture based subtitle format used on BDs/HD-DVDs
    Language                                 : English
    Default                                  : No
    Forced                                   : No
    Statistics Tags Issue                    : mkvmerge v15.0.0 ('Duel with the Devil') 64-bit 2018-09-19 02:02:56 / mkvmerge v15.0.0 ('Duel with the Devil') 64-bit 2018-09-19 02:02:56 / UTC 2018-09-18T02:06:27Z
    FromStats_BitRate                        : 26331
    FromStats_Duration                       : 03:11:54.253000000
    FromStats_FrameCount                     : 4177
    FromStats_StreamSize                     : 37898791

    Text #2
    ID                                       : 5
    Format                                   : PGS
    Muxing mode                              : zlib
    Codec ID                                 : S_HDMV/PGS
    Codec ID/Info                            : Picture based subtitle format used on BDs/HD-DVDs
    Language                                 : Spanish
    Default                                  : No
    Forced                                   : No
    Statistics Tags Issue                    : mkvmerge v15.0.0 ('Duel with the Devil') 64-bit 2018-09-19 02:02:56 / mkvmerge v15.0.0 ('Duel with the Devil') 64-bit 2018-09-19 02:02:56 / UTC 2018-09-18T02:06:27Z
    FromStats_BitRate                        : 20450
    FromStats_Duration                       : 03:12:03.179000000
    FromStats_FrameCount                     : 3288
    FromStats_StreamSize                     : 29457198

    Menu
    00:00:00.000                             : :Chapter 1
    00:05:05.222                             : :Chapter 2
    00:07:22.609                             : :Chapter 3
    00:11:22.807                             : :Chapter 4
    00:14:10.600                             : :Chapter 5
    00:22:54.373                             : :Chapter 6
    00:25:25.024                             : :Chapter 7
    00:29:12.376                             : :Chapter 8
    00:31:58.417                             : :Chapter 9
    00:35:51.608                             : :Chapter 10
    00:39:23.278                             : :Chapter 11
    00:43:34.445                             : :Chapter 12
    00:49:38.142                             : :Chapter 13
    00:54:09.329                             : :Chapter 14
    00:56:23.463                             : :Chapter 15
    00:58:15.409                             : :Chapter 16
    01:07:14.989                             : :Chapter 17
    01:11:16.606                             : :Chapter 18
    01:13:13.723                             : :Chapter 19
    01:17:20.386                             : :Chapter 20
    01:26:16.588                             : :Chapter 21
    01:28:46.863                             : :Chapter 22
    01:30:54.783                             : :Chapter 23
    01:37:39.187                             : :Chapter 24
    01:41:49.729                             : :Chapter 25
    01:43:32.498                             : :Chapter 26
    01:45:33.202                             : :Chapter 27
    01:46:36.932                             : :Chapter 28
    01:50:20.614                             : :Chapter 29
    01:54:11.261                             : :Chapter 30
    02:00:15.125                             : :Chapter 31
    02:05:47.999                             : :Chapter 32
    02:13:58.197                             : :Chapter 33
    02:19:03.961                             : :Chapter 34
    02:24:44.801                             : :Chapter 35
    02:26:43.878                             : :Chapter 36
    02:33:37.291                             : :Chapter 37
    02:34:59.957                             : :Chapter 38
    02:39:02.408                             : :Chapter 39
    02:44:25.481                             : :Chapter 40
    02:45:58.907                             : :Chapter 41
    02:52:46.606                             : :Chapter 42
    02:56:24.616                             : :Chapter 43
    02:58:56.142                             : :Chapter 44
    03:03:40.801                             : :Chapter 45
    03:06:29.553                             : :Chapter 46

  • Peso: 15.7 GiB

Sinopsis

El libro de Tom Wolfe sobre la historia del programa espacial de los Estados Unidos, se lee como si fuera una novela, y la película mantiene esa misma emocionante apariencia de ficción. Hace un recorrido desde la rotura de la barrera del sonido por Chuck Yeager en la base de la Fuerza Aérea de Edwards hasta los 7 astronautas seleccionados para el programa Mercurio, el primer proyecto de los Estados Unidos para enviar personas al espacio. Muestra que nadie tenía ni idea de cómo desarrollar un programa espacial o cual era la forma de seleccionar a las personas que debían participar en ella. Emocionante, divertido y encantador, todo a la vez.

Ficha técnica

Video trailer de la película

Enlaces de descarga

Rip de Bluray

Descargar Los elegidos de la gloria (1983) Full 1080p Latino




Aportes de DPeliculasHDmega la pass es:dpeliculashdmega.org Aportes de CinemaniaHD la pass es:cinemaniahdd.com

Películas relacionadas

  • The Padre (2018) WEB-DL 1080p Latino

    2018
    The Padre (2018) WEB-DL 1080p Latino

    3.0 1h 38m 2018

    Descargar The Padre (2018) WEB-DL 1080p Latino; Mega, Google Drive. El juez estadounidense retirado Randall...

    Director: Jonathan Sobol

    Género: Drama

    Actores: Tim Roth

  • Paciente Cero (2018) Full 1080p Latino

    2018
    Paciente Cero (2018) Full 1080p Latino

    3.7 1h 26m 2018

    Paciente Cero (2018) Full 1080p Latino; Mega, Google Drive. Tras una pandemia sin precedentes, la Humanidad...

    Director: Stefan Ruzowitzky

    Género: Acción

    Actores: Yumiko Hanasaka

  • Paciente Cero (2018) 1080p Latino

    2018
    Paciente Cero (2018) 1080p Latino

    1.0 1h 26m 2018

    Descargar Paciente Cero (2018) 1080p Latino; Mega, Google Drive. Tras una pandemia sin precedentes, la...

    Director: Stefan Ruzowitzky

    Género: Acción

    Actores: Yumiko Hanasaka

Comentarios 1
  • Hugo - 21 septiembre, 2018

    Excelente aporte, gracias…