Lilo & Stitch (2002) Full 1080p Latino

890 vistas
1 estrella2 estrellas3 estrellas4 estrellas5 estrellas (5 votos, promedio: 4,20 de 5)
Cargando…

Información de Lilo & Stitch (2002) Full 1080p Latino

Datos de la película

  • Calidad: Full 1080p
  • Audio: Español Latino AC3 5.1 BLURAY - Ingles DTS 5.1 BLURAY
  • Subtitulos: Español Latino PGS - Ingles PGS
  • Resolución: 1920x1080p
  • Formato: MKV
  • Codec: H.264
  • Encoder: Dracarys
  • Mediainfo: Clic para Mostrar Datos Ver
  • Format                                   : Matroska
    Format version                           : Version 4 / Version 2
    File size                                : 3.03 GiB
    Duration                                 : 1 h 25 min
    Overall bit rate                         : 5 074 kb/s
    Movie name                               : CinemaniaHDD.met
    Encoded date                             : UTC 2018-06-26 02:30:44 / UTC 2018-06-26T02:44:42Z
    Writing application                      : mkvmerge v15.0.0 ('Duel with the Devil') 64-bit
    Writing library                          : libebml v1.3.5 + libmatroska v1.4.5 / Lavf57.7.2

    Video
    ID                                       : 1
    Format                                   : AVC
    Format/Info                              : Advanced Video Codec
    Format profile                           : High@L4.1
    Format settings                          : CABAC / 4 Ref Frames
    Format settings, CABAC                   : Yes
    Format settings, RefFrames               : 4 frames
    Codec ID                                 : V_MPEG4/ISO/AVC
    Duration                                 : 1 h 25 min
    Bit rate                                 : 2 824 kb/s
    Width                                    : 1 920 pixels
    Height                                   : 1 080 pixels
    Display aspect ratio                     : 16:9
    Frame rate mode                          : Constant
    Frame rate                               : 23.976 (24000/1001) FPS
    Color space                              : YUV
    Chroma subsampling                       : 4:2:0
    Bit depth                                : 8 bits
    Scan type                                : Progressive
    Bits/(Pixel*Frame)                       : 0.057
    Stream size                              : 1.68 GiB (56%)
    Title                                    : Lilo & Stitch (2002) Full 1080p Latino
    Writing library                          : x264 core 155 r2893 b00bcaf
    Encoding settings                        : cabac=1 / ref=4 / deblock=1:0:0 / analyse=0x3:0x133 / me=esa / subme=10 / psy=1 / psy_rd=1.00:0.00 / mixed_ref=1 / me_range=24 / chroma_me=1 / trellis=2 / 8x8dct=1 / cqm=0 / deadzone=21,11 / fast_pskip=1 / chroma_qp_offset=-2 / threads=24 / lookahead_threads=4 / sliced_threads=0 / nr=0 / decimate=1 / interlaced=0 / bluray_compat=0 / constrained_intra=0 / bframes=8 / b_pyramid=2 / b_adapt=2 / b_bias=0 / direct=3 / weightb=1 / open_gop=0 / weightp=2 / keyint=240 / keyint_min=24 / scenecut=40 / intra_refresh=0 / rc_lookahead=60 / rc=crf / mbtree=1 / crf=20.0 / qcomp=0.60 / qpmin=0 / qpmax=69 / qpstep=4 / vbv_maxrate=62500 / vbv_bufsize=78125 / crf_max=0.0 / nal_hrd=none / filler=0 / ip_ratio=1.40 / aq=1:1.00
    Language                                 : English
    Default                                  : Yes
    Forced                                   : No
    Color range                              : Limited
    Color primaries                          : BT.709
    Transfer characteristics                 : BT.709
    Matrix coefficients                      : BT.709
    Statistics Tags Issue                    : mkvmerge v15.0.0 ('Duel with the Devil') 64-bit 2018-06-26 02:30:44 / mkvmerge v15.0.0 ('Duel with the Devil') 64-bit 2018-06-26 02:30:44 / UTC 2018-06-26T02:44:42Z
    FromStats_BitRate                        : 2866472
    FromStats_Duration                       : 01:25:15.986000000
    FromStats_FrameCount                     : 122661
    FromStats_StreamSize                     : 1833104266

    Audio #1
    ID                                       : 2
    Format                                   : AC-3
    Format/Info                              : Audio Coding 3
    Format settings, Endianness              : Big
    Codec ID                                 : A_AC3
    Duration                                 : 1 h 25 min
    Bit rate mode                            : Constant
    Bit rate                                 : 640 kb/s
    Channel(s)                               : 6 channels
    Channel positions                        : Front: L C R, Side: L R, LFE
    Sampling rate                            : 48.0 kHz
    Frame rate                               : 31.250 FPS (1536 SPF)
    Bit depth                                : 16 bits
    Compression mode                         : Lossy
    Stream size                              : 391 MiB (13%)
    Language                                 : Spanish
    Service kind                             : Complete Main
    Default                                  : Yes
    Forced                                   : No
    Statistics Tags Issue                    : mkvmerge v15.0.0 ('Duel with the Devil') 64-bit 2018-06-26 02:30:44 / mkvmerge v15.0.0 ('Duel with the Devil') 64-bit 2018-06-26 02:30:44 / UTC 2018-06-26T02:44:42Z
    FromStats_BitRate                        : 640000
    FromStats_Duration                       : 01:25:23.648000000
    FromStats_FrameCount                     : 160114
    FromStats_StreamSize                     : 409891840

    Audio #2
    ID                                       : 3
    Format                                   : DTS
    Format/Info                              : Digital Theater Systems
    Mode                                     : 16
    Format settings, Endianness              : Big
    Codec ID                                 : A_DTS
    Duration                                 : 1 h 25 min
    Bit rate mode                            : Constant
    Bit rate                                 : 1 509 kb/s
    Channel(s)                               : 6 channels
    Channel positions                        : Front: L C R, Side: L R, LFE
    Sampling rate                            : 48.0 kHz
    Frame rate                               : 93.750 FPS (512 SPF)
    Bit depth                                : 24 bits
    Compression mode                         : Lossy
    Stream size                              : 922 MiB (30%)
    Language                                 : English
    Default                                  : No
    Forced                                   : No
    Statistics Tags Issue                    : mkvmerge v15.0.0 ('Duel with the Devil') 64-bit 2018-06-26 02:30:44 / mkvmerge v15.0.0 ('Duel with the Devil') 64-bit 2018-06-26 02:30:44 / UTC 2018-06-26T02:44:42Z
    FromStats_BitRate                        : 1508999
    FromStats_Duration                       : 01:25:15.563000000
    FromStats_FrameCount                     : 479584
    FromStats_StreamSize                     : 964923008

    Text #1
    ID                                       : 4
    Format                                   : PGS
    Muxing mode                              : zlib
    Codec ID                                 : S_HDMV/PGS
    Codec ID/Info                            : Picture based subtitle format used on BDs/HD-DVDs
    Language                                 : English
    Default                                  : No
    Forced                                   : No
    Statistics Tags Issue                    : mkvmerge v15.0.0 ('Duel with the Devil') 64-bit 2018-06-26 02:30:44 / mkvmerge v15.0.0 ('Duel with the Devil') 64-bit 2018-06-26 02:30:44 / UTC 2018-06-26T02:44:42Z
    FromStats_BitRate                        : 87952
    FromStats_Duration                       : 01:25:06.184000000
    FromStats_FrameCount                     : 3696
    FromStats_StreamSize                     : 56137869

    Text #2
    ID                                       : 5
    Format                                   : PGS
    Muxing mode                              : zlib
    Codec ID                                 : S_HDMV/PGS
    Codec ID/Info                            : Picture based subtitle format used on BDs/HD-DVDs
    Language                                 : Spanish
    Default                                  : No
    Forced                                   : No
    Statistics Tags Issue                    : mkvmerge v15.0.0 ('Duel with the Devil') 64-bit 2018-06-26 02:30:44 / mkvmerge v15.0.0 ('Duel with the Devil') 64-bit 2018-06-26 02:30:44 / UTC 2018-06-26T02:44:42Z
    FromStats_BitRate                        : 46565
    FromStats_Duration                       : 01:18:32.713000000
    FromStats_FrameCount                     : 2060
    FromStats_StreamSize                     : 27431264

    Menu
    00:00:00.000                             : :Chapter 1
    00:02:55.884                             : :Chapter 2
    00:06:33.894                             : :Chapter 3
    00:08:29.384                             : :Chapter 4
    00:09:57.972                             : :Chapter 5
    00:14:55.895                             : :Chapter 6
    00:19:58.823                             : :Chapter 7
    00:21:31.999                             : :Chapter 8
    00:23:54.391                             : :Chapter 9
    00:24:54.952                             : :Chapter 10
    00:28:41.261                             : :Chapter 11
    00:30:26.491                             : :Chapter 12
    00:31:43.944                             : :Chapter 13
    00:35:00.348                             : :Chapter 14
    00:36:37.654                             : :Chapter 15
    00:39:30.159                             : :Chapter 16
    00:40:59.749                             : :Chapter 17
    00:46:05.012                             : :Chapter 18
    00:49:34.013                             : :Chapter 19
    00:50:25.689                             : :Chapter 20
    00:52:08.292                             : :Chapter 21
    00:55:11.433                             : :Chapter 22
    00:55:48.887                             : :Chapter 23
    00:57:18.977                             : :Chapter 24
    01:02:33.625                             : :Chapter 25
    01:03:41.151                             : :Chapter 26
    01:05:07.153                             : :Chapter 27
    01:07:53.236                             : :Chapter 28
    01:13:53.804                             : :Chapter 29
    01:17:18.634                             : :Chapter 30

  • Peso: 3.03 GiB

Sinopsis

Lilo es una niña hawaiana que se siente sola y decide adoptar un “perro” muy feo al que llama Stitch. Stitch sería la mascota perfecta… si no fuera en realidad un experimento genético que ha escapado de un planeta alienígena y que ha aterrizado en la tierra por casualidad. Con su amor y su inquebrantable fe en el “ohana” (el concepto hawaiano de la familia), Lilo termina conquistando el corazón de Stitch y le ofrece algo que el original perro nunca pensó tener: un hogar.

Ficha técnica

Video trailer de la película

Enlaces de descarga

Rip de Bluray

Descargar Lilo & Stitch (2002) Full 1080p Latino




Aportes de DPeliculasHDmega la pass es:dpeliculashdmega.org Aportes de CinemaniaHD la pass es:cinemaniahdd.com

Películas relacionadas

  • Pato pato Ganso (2018) 1080p Latino

    2018
    Pato pato Ganso (2018) 1080p Latino

    0.0 1h 22m 2018

    Después de que sufrió una lesión, un soltero de alto vuelo se enfrenta a dos huérfanos de ojos muy...

    Director: Christopher Jenkins

    Género: 1080p Portada Negra

    Actores: Zendaya

  • Si solo pudiera imaginar (2018) Full 1080p Latino

    2018
    Si solo pudiera imaginar (2018) Full 1080p Latino

    5.0 1 h 50 min 2018

    La historia real de la aclamada canción "I Can Only Imagine", la canción cristiana contemporánea más...

    Director: Jon Erwin

    Género: Drama

    Actores: Trace Adkins

  • El Justiciero (2014) Full 1080p Latino

    2014
    El Justiciero (2014) Full 1080p Latino

    4.3 2 h 12 min 2014

    Robert McCall, un antiguo agente de la CIA que lleva ahora una vida tranquila, abandona su retiro para...

    Director: Deirdre Horgan

    Género: Acción

    Actores: Yan Dron

Comentarios 0