Kick-Ass 2 (2013) Full 1080p Latino

928 vistas
1 estrella2 estrellas3 estrellas4 estrellas5 estrellas (2 votos, promedio: 3,00 de 5)
Cargando…

Información de Kick-Ass 2 (2013) Full 1080p Latino

Datos de la película

  • Calidad: Full 1080p
  • Audio: Español Latino AC3 5.1 BLURAY - Ingles DTS 5.1 BLURAY
  • Subtitulos: Español Latino PGS - Ingles PGS
  • Resolución: 1920X1080p
  • Formato: MKV
  • Codec: H.264
  • Encoder: Dracarys
  • Mediainfo: Clic para Mostrar Datos Ver
  • Format                                   : Matroska
    Format version                           : Version 4 / Version 2
    File size                                : 5.01 GiB
    Duration                                 : 1 h 43 min
    Overall bit rate                         : 6 965 kb/s
    Movie name                               : CinemaniaHDD.com
    Encoded date                             : UTC 2018-03-09 04:30:56 / UTC 2018-03-08T22:31:34Z
    Writing application                      : mkvmerge v15.0.0 ('Duel with the Devil') 64-bit
    Writing library                          : libebml v1.3.5 + libmatroska v1.4.5 / Lavf57.7.2

    Video
    ID                                       : 1
    Format                                   : AVC
    Format/Info                              : Advanced Video Codec
    Format profile                           : High@L4.1
    Format settings                          : CABAC / 4 Ref Frames
    Format settings, CABAC                   : Yes
    Format settings, RefFrames               : 4 frames
    Codec ID                                 : V_MPEG4/ISO/AVC
    Duration                                 : 1 h 43 min
    Bit rate                                 : 4 934 kb/s
    Width                                    : 1 920 pixels
    Height                                   : 1 080 pixels
    Display aspect ratio                     : 16:9
    Frame rate mode                          : Constant
    Frame rate                               : 23.976 (24000/1001) FPS
    Color space                              : YUV
    Chroma subsampling                       : 4:2:0
    Bit depth                                : 8 bits
    Scan type                                : Progressive
    Bits/(Pixel*Frame)                       : 0.099
    Stream size                              : 3.55 GiB (71%)
    Title                                    : Kick-Ass 2 (2013) Full 1080p Latino
    Writing library                          : x264 core 148 r2708 86b7198
    Encoding settings                        : cabac=1 / ref=4 / deblock=1:0:0 / analyse=0x3:0x133 / me=esa / subme=10 / psy=1 / psy_rd=1.00:0.00 / mixed_ref=1 / me_range=24 / chroma_me=1 / trellis=2 / 8x8dct=1 / cqm=0 / deadzone=21,11 / fast_pskip=1 / chroma_qp_offset=-2 / threads=34 / lookahead_threads=5 / sliced_threads=0 / nr=0 / decimate=1 / interlaced=0 / bluray_compat=0 / constrained_intra=0 / bframes=8 / b_pyramid=2 / b_adapt=2 / b_bias=0 / direct=3 / weightb=1 / open_gop=0 / weightp=2 / keyint=240 / keyint_min=24 / scenecut=40 / intra_refresh=0 / rc_lookahead=60 / rc=crf / mbtree=1 / crf=20.0 / qcomp=0.60 / qpmin=0 / qpmax=69 / qpstep=4 / vbv_maxrate=62500 / vbv_bufsize=78125 / crf_max=0.0 / nal_hrd=none / filler=0 / ip_ratio=1.40 / aq=1:1.00
    Language                                 : English
    Default                                  : Yes
    Forced                                   : No
    Color range                              : Limited
    Color primaries                          : BT.709
    Transfer characteristics                 : BT.709
    Matrix coefficients                      : BT.709
    Statistics Tags Issue                    : mkvmerge v15.0.0 ('Duel with the Devil') 64-bit 2018-03-09 04:30:56 / mkvmerge v15.0.0 ('Duel with the Devil') 64-bit 2018-03-09 04:30:56 / UTC 2018-03-08T22:31:34Z
    FromStats_BitRate                        : 5027485
    FromStats_Duration                       : 01:43:00.174000000
    FromStats_FrameCount                     : 148176
    FromStats_StreamSize                     : 3883841517

    Audio #1
    ID                                       : 2
    Format                                   : AC-3
    Format/Info                              : Audio Coding 3
    Format settings, Endianness              : Big
    Codec ID                                 : A_AC3
    Duration                                 : 1 h 43 min
    Bit rate mode                            : Constant
    Bit rate                                 : 384 kb/s
    Channel(s)                               : 6 channels
    Channel positions                        : Front: L C R, Side: L R, LFE
    Sampling rate                            : 48.0 kHz
    Frame rate                               : 31.250 FPS (1536 SPF)
    Bit depth                                : 16 bits
    Compression mode                         : Lossy
    Stream size                              : 283 MiB (6%)
    Language                                 : Spanish
    Service kind                             : Complete Main
    Default                                  : Yes
    Forced                                   : No
    Statistics Tags Issue                    : mkvmerge v15.0.0 ('Duel with the Devil') 64-bit 2018-03-09 04:30:56 / mkvmerge v15.0.0 ('Duel with the Devil') 64-bit 2018-03-09 04:30:56 / UTC 2018-03-08T22:31:34Z
    FromStats_BitRate                        : 384000
    FromStats_Duration                       : 01:43:00.608000000
    FromStats_FrameCount                     : 193144
    FromStats_StreamSize                     : 296669184

    Audio #2
    ID                                       : 3
    Format                                   : DTS
    Format/Info                              : Digital Theater Systems
    Mode                                     : 16
    Format settings, Endianness              : Big
    Codec ID                                 : A_DTS
    Duration                                 : 1 h 43 min
    Bit rate mode                            : Constant
    Bit rate                                 : 1 509 kb/s
    Channel(s)                               : 6 channels
    Channel positions                        : Front: L C R, Side: L R, LFE
    Sampling rate                            : 48.0 kHz
    Frame rate                               : 93.750 FPS (512 SPF)
    Bit depth                                : 16 bits
    Compression mode                         : Lossy
    Stream size                              : 1.09 GiB (22%)
    Language                                 : English
    Default                                  : No
    Forced                                   : No
    Statistics Tags Issue                    : mkvmerge v15.0.0 ('Duel with the Devil') 64-bit 2018-03-09 04:30:56 / mkvmerge v15.0.0 ('Duel with the Devil') 64-bit 2018-03-09 04:30:56 / UTC 2018-03-08T22:31:34Z
    FromStats_BitRate                        : 1508999
    FromStats_Duration                       : 01:43:00.171000000
    FromStats_FrameCount                     : 579391
    FromStats_StreamSize                     : 1165734692

    Text #1
    ID                                       : 4
    Format                                   : UTF-8
    Codec ID                                 : S_TEXT/UTF8
    Codec ID/Info                            : UTF-8 Plain Text
    Title                                    : Forzados
    Language                                 : Spanish
    Default                                  : Yes
    Forced                                   : Yes
    Statistics Tags Issue                    : mkvmerge v15.0.0 ('Duel with the Devil') 64-bit 2018-03-09 04:30:56 / mkvmerge v15.0.0 ('Duel with the Devil') 64-bit 2018-03-09 04:30:56 / UTC 2018-03-08T22:31:34Z
    FromStats_BitRate                        : 0
    FromStats_Duration                       : 01:33:56.490000000
    FromStats_FrameCount                     : 17
    FromStats_StreamSize                     : 528

    Text #2
    ID                                       : 5
    Format                                   : UTF-8
    Codec ID                                 : S_TEXT/UTF8
    Codec ID/Info                            : UTF-8 Plain Text
    Language                                 : Spanish
    Default                                  : No
    Forced                                   : No
    Statistics Tags Issue                    : mkvmerge v15.0.0 ('Duel with the Devil') 64-bit 2018-03-09 04:30:56 / mkvmerge v15.0.0 ('Duel with the Devil') 64-bit 2018-03-09 04:30:56 / UTC 2018-03-08T22:31:34Z
    FromStats_BitRate                        : 64
    FromStats_Duration                       : 01:41:56.570000000
    FromStats_FrameCount                     : 1254
    FromStats_StreamSize                     : 49685

    Text #3
    ID                                       : 6
    Format                                   : PGS
    Muxing mode                              : zlib
    Codec ID                                 : S_HDMV/PGS
    Codec ID/Info                            : Picture based subtitle format used on BDs/HD-DVDs
    Title                                    : Forzados
    Language                                 : Spanish
    Default                                  : No
    Forced                                   : No
    Statistics Tags Issue                    : mkvmerge v15.0.0 ('Duel with the Devil') 64-bit 2018-03-09 04:30:56 / mkvmerge v15.0.0 ('Duel with the Devil') 64-bit 2018-03-09 04:30:56 / UTC 2018-03-08T22:31:34Z
    FromStats_BitRate                        : 831
    FromStats_Duration                       : 01:33:56.512000000
    FromStats_FrameCount                     : 34
    FromStats_StreamSize                     : 585899

    Text #4
    ID                                       : 7
    Format                                   : PGS
    Muxing mode                              : zlib
    Codec ID                                 : S_HDMV/PGS
    Codec ID/Info                            : Picture based subtitle format used on BDs/HD-DVDs
    Language                                 : Spanish
    Default                                  : No
    Forced                                   : No
    Statistics Tags Issue                    : mkvmerge v15.0.0 ('Duel with the Devil') 64-bit 2018-03-09 04:30:56 / mkvmerge v15.0.0 ('Duel with the Devil') 64-bit 2018-03-09 04:30:56 / UTC 2018-03-08T22:31:34Z
    FromStats_BitRate                        : 58075
    FromStats_Duration                       : 01:41:56.574000000
    FromStats_FrameCount                     : 2508
    FromStats_StreamSize                     : 44402558

    Text #5
    ID                                       : 8
    Format                                   : PGS
    Muxing mode                              : zlib
    Codec ID                                 : S_HDMV/PGS
    Codec ID/Info                            : Picture based subtitle format used on BDs/HD-DVDs
    Language                                 : English
    Default                                  : No
    Forced                                   : No
    Statistics Tags Issue                    : mkvmerge v15.0.0 ('Duel with the Devil') 64-bit 2018-03-09 04:30:56 / mkvmerge v15.0.0 ('Duel with the Devil') 64-bit 2018-03-09 04:30:56 / UTC 2018-03-08T22:31:34Z
    FromStats_BitRate                        : 51637
    FromStats_Duration                       : 01:42:01.115000000
    FromStats_FrameCount                     : 3521
    FromStats_StreamSize                     : 39509976

    Menu
    00:00:00.000                             : :Chapter 1
    00:05:58.191                             : :Chapter 2
    00:10:37.929                             : :Chapter 3
    00:14:08.306                             : :Chapter 4
    00:19:11.108                             : :Chapter 5
    00:23:11.348                             : :Chapter 6
    00:30:20.444                             : :Chapter 7
    00:35:25.498                             : :Chapter 8
    00:40:13.786                             : :Chapter 9
    00:45:36.567                             : :Chapter 10
    00:52:35.444                             : :Chapter 11
    00:58:02.396                             : :Chapter 12
    01:00:37.843                             : :Chapter 13
    01:05:36.099                             : :Chapter 14
    01:09:57.944                             : :Chapter 15
    01:15:56.343                             : :Chapter 16
    01:21:05.486                             : :Chapter 17
    01:23:32.549                             : :Chapter 18
    01:33:05.538                             : :Chapter 19
    01:36:38.251                             : :Chapter 20

  • Peso: 5.01 GiB

Sinopsis

Secuela de la aclamada película Kick-Ass (2010), basada en el cómic de Mark Millar. Después de que la loca valentía de Kick-Ass (Aaron Taylor-Johnson) inspirara a toda una oleada de nuevos defensores del bien dirigidos por el durísimo coronel Stars and Stripes (Jim Carrey), nuestro héroe decide unirse a ellos. Pero cuando Bruma Roja (Christopher Mintz-Plasse), que regresa con el nombre de The Mother, decide deshacerse de los superhéroes aficionados, solo Hit Girl (Chloë Grace Moretz) podrá impedir que los aniquile.

Ficha técnica

Video trailer de la película

Enlaces de descarga

Rip de Bluray

Descargar Kick-Ass 2 (2013) Full 1080p Latino




Aportes de DPeliculasHDmega la pass es:dpeliculashdmega.org Aportes de CinemaniaHD la pass es:cinemaniahdd.com

Películas relacionadas

  • Si solo pudiera imaginar (2018) Full 1080p Latino

    2018
    Si solo pudiera imaginar (2018) Full 1080p Latino

    5.0 1 h 50 min 2018

    La historia real de la aclamada canción "I Can Only Imagine", la canción cristiana contemporánea más...

    Director: Jon Erwin

    Género: Drama

    Actores: Trace Adkins

  • El Justiciero (2014) Full 1080p Latino

    2014
    El Justiciero (2014) Full 1080p Latino

    4.0 2 h 12 min 2014

    Robert McCall, un antiguo agente de la CIA que lleva ahora una vida tranquila, abandona su retiro para...

    Director: Deirdre Horgan

    Género: Acción

    Actores: Yan Dron

  • James Bond Live and Let Die (1973) Full 1080p Latino

    1973
    James Bond Live and Let Die (1973) Full 1080p Latino

    0.0 2 h 1 min 1973

    En tan sólo veinticuatro horas, tres agentes del servicio secreto británico que investigaban una red...

    Director: Guy Hamilton

    Género: Acción

    Actores: Yaphet Kotto

Comentarios 0