Hungarian Rhapsody: Queen Live in Budapest (1987) Full 1080p Concierto

1.719 vistas
1 estrella2 estrellas3 estrellas4 estrellas5 estrellas (8 votos, promedio: 3,50 de 5)
Cargando…

Información de Hungarian Rhapsody: Queen Live in Budapest (1987) Full 1080p Concierto

Datos de la película

  • Calidad: Full 1080p
  • Audio: Ingles DTS 5.1 BLURAY
  • Subtitulos: No
  • Resolución: 1920x1080p
  • Formato: MKV
  • Codec: H.264
  • Encoder: Dracarys
  • Mediainfo: Clic para Mostrar Datos Ver
  • Format                                   : Matroska
    Format version                           : Version 4 / Version 2
    File size                                : 14.6 GiB
    Duration                                 : 1 h 31 min
    Overall bit rate                         : 23.0 Mb/s
    Movie name                               : CinemaniaHDD.com
    Encoded date                             : UTC 2018-05-20 04:19:17 / UTC 2018-05-19T10:56:38Z
    Writing application                      : mkvmerge v15.0.0 ('Duel with the Devil') 64-bit
    Writing library                          : libebml v1.3.5 + libmatroska v1.4.5 / Lavf57.7.2

    Video
    ID                                       : 1
    Format                                   : AVC
    Format/Info                              : Advanced Video Codec
    Format profile                           : High@L4.1
    Format settings                          : CABAC / 4 Ref Frames
    Format settings, CABAC                   : Yes
    Format settings, RefFrames               : 4 frames
    Codec ID                                 : V_MPEG4/ISO/AVC
    Duration                                 : 1 h 31 min
    Bit rate                                 : 20.4 Mb/s
    Width                                    : 1 920 pixels
    Height                                   : 1 080 pixels
    Display aspect ratio                     : 16:9
    Frame rate mode                          : Constant
    Frame rate                               : 24.000 FPS
    Color space                              : YUV
    Chroma subsampling                       : 4:2:0
    Bit depth                                : 8 bits
    Scan type                                : Progressive
    Bits/(Pixel*Frame)                       : 0.409
    Stream size                              : 13.0 GiB (89%)
    Title                                    : Hungarian Rhapsody: Queen Live in Budapest (1987) Full 1080p Concierto
    Writing library                          : x264 core 148 r2708 86b7198
    Encoding settings                        : cabac=1 / ref=4 / deblock=1:0:0 / analyse=0x3:0x133 / me=esa / subme=9 / psy=1 / psy_rd=1.00:0.00 / mixed_ref=1 / me_range=16 / chroma_me=1 / trellis=2 / 8x8dct=1 / cqm=0 / deadzone=21,11 / fast_pskip=1 / chroma_qp_offset=-2 / threads=34 / lookahead_threads=2 / sliced_threads=0 / nr=0 / decimate=1 / interlaced=0 / bluray_compat=0 / constrained_intra=0 / bframes=3 / b_pyramid=2 / b_adapt=2 / b_bias=0 / direct=3 / weightb=1 / open_gop=0 / weightp=2 / keyint=240 / keyint_min=24 / scenecut=40 / intra_refresh=0 / rc_lookahead=60 / rc=crf / mbtree=1 / crf=20.0 / qcomp=0.60 / qpmin=0 / qpmax=69 / qpstep=4 / vbv_maxrate=62500 / vbv_bufsize=78125 / crf_max=0.0 / nal_hrd=none / filler=0 / ip_ratio=1.40 / aq=1:1.00
    Language                                 : English
    Default                                  : Yes
    Forced                                   : No
    Color range                              : Limited
    Color primaries                          : BT.709
    Transfer characteristics                 : BT.709
    Matrix coefficients                      : BT.709
    Statistics Tags Issue                    : mkvmerge v15.0.0 ('Duel with the Devil') 64-bit 2018-05-20 04:19:17 / mkvmerge v15.0.0 ('Duel with the Devil') 64-bit 2018-05-20 04:19:17 / UTC 2018-05-19T10:56:38Z
    FromStats_BitRate                        : 20816068
    FromStats_Duration                       : 01:31:08.000000000
    FromStats_FrameCount                     : 131232
    FromStats_StreamSize                     : 14227782662

    Audio #1
    ID                                       : 2
    Format                                   : DTS
    Format/Info                              : Digital Theater Systems
    Mode                                     : 16
    Format settings, Endianness              : Big
    Codec ID                                 : A_DTS
    Duration                                 : 1 h 31 min
    Bit rate mode                            : Constant
    Bit rate                                 : 1 509 kb/s
    Channel(s)                               : 6 channels
    Channel positions                        : Front: L C R, Side: L R, LFE
    Sampling rate                            : 48.0 kHz
    Frame rate                               : 93.750 FPS (512 SPF)
    Bit depth                                : 24 bits
    Compression mode                         : Lossy
    Stream size                              : 984 MiB (7%)
    Title                                    : DTS
    Language                                 : English
    Default                                  : Yes
    Forced                                   : No
    Statistics Tags Issue                    : mkvmerge v15.0.0 ('Duel with the Devil') 64-bit 2018-05-20 04:19:17 / mkvmerge v15.0.0 ('Duel with the Devil') 64-bit 2018-05-20 04:19:17 / UTC 2018-05-19T10:56:38Z
    FromStats_BitRate                        : 1509000
    FromStats_Duration                       : 01:31:08.032000000
    FromStats_FrameCount                     : 512628
    FromStats_StreamSize                     : 1031407536

    Audio #2
    ID                                       : 3
    Format                                   : AC-3
    Format/Info                              : Audio Coding 3
    Format settings, Endianness              : Big
    Codec ID                                 : A_AC3
    Duration                                 : 1 h 31 min
    Bit rate mode                            : Constant
    Bit rate                                 : 640 kb/s
    Channel(s)                               : 6 channels
    Channel positions                        : Front: L C R, Side: L R, LFE
    Sampling rate                            : 48.0 kHz
    Frame rate                               : 31.250 FPS (1536 SPF)
    Bit depth                                : 16 bits
    Compression mode                         : Lossy
    Delay relative to video                  : -5 ms
    Stream size                              : 417 MiB (3%)
    Title                                    : AC3
    Language                                 : English
    Service kind                             : Complete Main
    Default                                  : No
    Forced                                   : No
    Statistics Tags Issue                    : mkvmerge v15.0.0 ('Duel with the Devil') 64-bit 2018-05-20 04:19:17 / mkvmerge v15.0.0 ('Duel with the Devil') 64-bit 2018-05-20 04:19:17 / UTC 2018-05-19T10:56:38Z
    FromStats_BitRate                        : 640000
    FromStats_Duration                       : 01:31:08.000000000
    FromStats_FrameCount                     : 170875
    FromStats_StreamSize                     : 437440000

    Text
    ID                                       : 4
    Format                                   : PGS
    Muxing mode                              : zlib
    Codec ID                                 : S_HDMV/PGS
    Codec ID/Info                            : Picture based subtitle format used on BDs/HD-DVDs
    Language                                 : Spanish
    Default                                  : No
    Forced                                   : No
    Statistics Tags Issue                    : mkvmerge v15.0.0 ('Duel with the Devil') 64-bit 2018-05-20 04:19:17 / mkvmerge v15.0.0 ('Duel with the Devil') 64-bit 2018-05-20 04:19:17 / UTC 2018-05-19T10:56:38Z
    FromStats_BitRate                        : 1565
    FromStats_Duration                       : 01:11:58.000000000
    FromStats_FrameCount                     : 98
    FromStats_StreamSize                     : 844772

    Menu
    00:00:00.000                             : :Chapter 1
    00:00:58.625                             : :Chapter 2
    00:06:33.875                             : :Chapter 3
    00:08:30.875                             : :Chapter 4
    00:11:04.708                             : :Chapter 5
    00:12:45.875                             : :Chapter 6
    00:14:34.167                             : :Chapter 7
    00:21:03.792                             : :Chapter 8
    00:24:30.917                             : :Chapter 9
    00:28:06.792                             : :Chapter 10
    00:32:08.750                             : :Chapter 11
    00:35:10.417                             : :Chapter 12
    00:38:55.750                             : :Chapter 13
    00:41:04.958                             : :Chapter 14
    00:46:55.708                             : :Chapter 15
    00:49:40.625                             : :Chapter 16
    00:51:41.125                             : :Chapter 17
    00:54:08.208                             : :Chapter 18
    00:55:00.458                             : :Chapter 19
    00:57:49.083                             : :Chapter 20
    00:59:23.833                             : :Chapter 21
    01:04:42.708                             : :Chapter 22
    01:08:58.208                             : :Chapter 23
    01:12:40.083                             : :Chapter 24
    01:13:53.583                             : :Chapter 25
    01:20:00.500                             : :Chapter 26
    01:23:03.083                             : :Chapter 27
    01:25:03.958                             : :Chapter 28
    01:28:57.750                             : :Chapter 29

  • Peso: 14.6 GiB

Sinopsis

El 27 de julio de 1986, la banda británica de rock de los estadios Queen abrió un nuevo camino tocando por primera vez en Hungría, un país que todavía estaba bajo una dictadura comunista detrás de la Cortina de Hierro.

Ficha técnica

Video trailer de la película

Enlaces de descarga

Rip de Bluray

Descargar Hungarian Rhapsody: Queen Live in Budapest (1987) Full 1080p Concierto




Aportes de DPeliculasHDmega la pass es:dpeliculashdmega.org Aportes de CinemaniaHD la pass es:cinemaniahdd.com
Guardado en : FULL 1080p Plateadas , Música

Películas relacionadas

  • Lady Bird (2017) Full 1080p Latino

    2017
    Lady Bird (2017) Full 1080p Latino

    5.0 1h 34m 2017

    Sacramento, California, año 2002. Una joven llamada Christine McPherson (Saoirse Ronan), apodada como...

    Director: Jonas Spaccarotelli

    Género: Comedia

    Actores: Tracy Letts

  • Plan de escape (2013) Full 1080p Latino

    2013
    Plan de escape (2013) Full 1080p Latino

    3.0 1h 56m 2013

    El experto en seguridad Ray Breslin prueba sus teorías poco convencionales en diseño de prisiones elaborando...

    Director: Mikael Håfström

    Género: Acción

    Actores: Vinnie Jones

Comentarios 2
  • marcelo - 14 junio, 2018

    buenas tardes yo quiero saber porque ninguna pelicula puedo descagar desde mega, me sale enlace no valido gracias

    • Dracarys - 15 junio, 2018

      usar un gestor de descargas