Harry Potter y las reliquias de la muerte – Parte II (2011) Full 1080p Latino

1.594 vistas
1 estrella2 estrellas3 estrellas4 estrellas5 estrellas (1 votos, promedio: 1,00 de 5)
Cargando…

Información de Harry Potter y las reliquias de la muerte – Parte II (2011) Full 1080p Latino

Datos de la película

  • Calidad: Full 1080p
  • Audio: Español Latino AC3 5.1 BLURAY - Ingles DTS 5.1 BLURAY
  • Subtitulos: Español Latino PGS
  • Resolución: 1920X1080
  • Formato: MKV
  • Codec: H.264
  • Encoder: Dpelis
  • Mediainfo: Clic para Mostrar Datos Ver
  • Format                                   : Matroska
    Format version                           : Version 4 / Version 2
    File size                                : 6.01 GiB
    Duration                                 : 2 h 10 min
    Overall bit rate                         : 6 599 kb/s
    Movie name                               : dpeliculashdmega.org
    Encoded date                             : UTC 2017-10-31 05:46:26 / UTC 2017-10-29T12:21:59Z
    Writing application                      : mkvmerge v10.0.0 ('To Drown In You') 64bit
    Writing library                          : libebml v1.3.4 + libmatroska v1.4.5 / Lavf57.7.2

    Video
    ID                                       : 1
    Format                                   : AVC
    Format/Info                              : Advanced Video Codec
    Format profile                           : High@L4.1
    Format settings                          : CABAC / 4 Ref Frames
    Format settings, CABAC                   : Yes
    Format settings, RefFrames               : 4 frames
    Codec ID                                 : V_MPEG4/ISO/AVC
    Duration                                 : 2 h 10 min
    Bit rate                                 : 4 319 kb/s
    Width                                    : 1 920 pixels
    Height                                   : 1 080 pixels
    Display aspect ratio                     : 16:9
    Frame rate mode                          : Constant
    Frame rate                               : 23.976 (24000/1001) FPS
    Color space                              : YUV
    Chroma subsampling                       : 4:2:0
    Bit depth                                : 8 bits
    Scan type                                : Progressive
    Bits/(Pixel*Frame)                       : 0.087
    Stream size                              : 3.94 GiB (65%)
    Title                                    : Harry Potter y las reliquias de la muerte - Parte II (2011) Full 1080p Latino
    Writing library                          : x264 core 148 r2708 86b7198
    Encoding settings                        : cabac=1 / ref=4 / deblock=1:0:0 / analyse=0x3:0x133 / me=esa / subme=10 / psy=1 / psy_rd=1.00:0.00 / mixed_ref=1 / me_range=24 / chroma_me=1 / trellis=2 / 8x8dct=1 / cqm=0 / deadzone=21,11 / fast_pskip=1 / chroma_qp_offset=-2 / threads=34 / lookahead_threads=5 / sliced_threads=0 / nr=0 / decimate=1 / interlaced=0 / bluray_compat=0 / constrained_intra=0 / bframes=8 / b_pyramid=2 / b_adapt=2 / b_bias=0 / direct=3 / weightb=1 / open_gop=0 / weightp=2 / keyint=240 / keyint_min=24 / scenecut=40 / intra_refresh=0 / rc_lookahead=60 / rc=crf / mbtree=1 / crf=20.0 / qcomp=0.60 / qpmin=0 / qpmax=69 / qpstep=4 / vbv_maxrate=62500 / vbv_bufsize=78125 / crf_max=0.0 / nal_hrd=none / filler=0 / ip_ratio=1.40 / aq=1:1.00
    Language                                 : English
    Default                                  : Yes
    Forced                                   : No
    Color range                              : Limited
    Color primaries                          : BT.709
    Transfer characteristics                 : BT.709
    Matrix coefficients                      : BT.709
    Statistics Tags Issue                    : mkvmerge v10.0.0 ('To Drown In You') 64bit 2017-10-31 05:46:26 / mkvmerge v10.0.0 ('To Drown In You') 64bit 2017-10-31 05:46:26 / UTC 2017-10-29T12:21:59Z
    FromStats_BitRate                        : 4440417
    FromStats_Duration                       : 02:10:26.861000000
    FromStats_FrameCount                     : 187657
    FromStats_StreamSize                     : 4344316173

    Audio #1
    ID                                       : 2
    Format                                   : AC-3
    Format/Info                              : Audio Coding 3
    Format settings, Endianness              : Big
    Codec ID                                 : A_AC3
    Duration                                 : 2 h 10 min
    Bit rate mode                            : Constant
    Bit rate                                 : 640 kb/s
    Channel(s)                               : 6 channels
    Channel positions                        : Front: L C R, Side: L R, LFE
    Sampling rate                            : 48.0 kHz
    Frame rate                               : 31.250 FPS (1536 SPF)
    Bit depth                                : 16 bits
    Compression mode                         : Lossy
    Stream size                              : 597 MiB (10%)
    Title                                    : Latino-AC3
    Language                                 : Spanish
    Service kind                             : Complete Main
    Default                                  : Yes
    Forced                                   : No
    Statistics Tags Issue                    : mkvmerge v10.0.0 ('To Drown In You') 64bit 2017-10-31 05:46:26 / mkvmerge v10.0.0 ('To Drown In You') 64bit 2017-10-31 05:46:26 / UTC 2017-10-29T12:21:59Z
    FromStats_BitRate                        : 640000
    FromStats_Duration                       : 02:10:26.976000000
    FromStats_FrameCount                     : 244593
    FromStats_StreamSize                     : 626158080

    Audio #2
    ID                                       : 3
    Format                                   : DTS
    Format/Info                              : Digital Theater Systems
    Mode                                     : 16
    Format settings, Endianness              : Big
    Codec ID                                 : A_DTS
    Duration                                 : 2 h 10 min
    Bit rate mode                            : Constant
    Bit rate                                 : 1 509 kb/s
    Channel(s)                               : 6 channels
    Channel positions                        : Front: L C R, Side: L R, LFE
    Sampling rate                            : 48.0 kHz
    Frame rate                               : 93.750 FPS (512 SPF)
    Bit depth                                : 24 bits
    Compression mode                         : Lossy
    Stream size                              : 1.37 GiB (23%)
    Title                                    : Ingles-DTS
    Language                                 : English
    Default                                  : No
    Forced                                   : No
    Statistics Tags Issue                    : mkvmerge v10.0.0 ('To Drown In You') 64bit 2017-10-31 05:46:26 / mkvmerge v10.0.0 ('To Drown In You') 64bit 2017-10-31 05:46:26 / UTC 2017-10-29T12:21:59Z
    FromStats_BitRate                        : 1508999
    FromStats_Duration                       : 02:10:26.870000000
    FromStats_FrameCount                     : 733769
    FromStats_StreamSize                     : 1476343228

    Text #1
    ID                                       : 4
    Format                                   : UTF-8
    Codec ID                                 : S_TEXT/UTF8
    Codec ID/Info                            : UTF-8 Plain Text
    Title                                    : SRT-Forzados
    Language                                 : Spanish
    Default                                  : Yes
    Forced                                   : No
    Statistics Tags Issue                    : mkvmerge v10.0.0 ('To Drown In You') 64bit 2017-10-31 05:46:26 / mkvmerge v10.0.0 ('To Drown In You') 64bit 2017-10-31 05:46:26 / UTC 2017-10-29T12:21:59Z
    FromStats_BitRate                        : 100
    FromStats_Duration                       : 00:00:17.392000000
    FromStats_FrameCount                     : 4
    FromStats_StreamSize                     : 218

    Text #2
    ID                                       : 5
    Format                                   : UTF-8
    Codec ID                                 : S_TEXT/UTF8
    Codec ID/Info                            : UTF-8 Plain Text
    Title                                    : SRT-Completos
    Language                                 : Spanish
    Default                                  : No
    Forced                                   : No
    Statistics Tags Issue                    : mkvmerge v10.0.0 ('To Drown In You') 64bit 2017-10-31 05:46:26 / mkvmerge v10.0.0 ('To Drown In You') 64bit 2017-10-31 05:46:26 / UTC 2017-10-29T12:21:59Z
    FromStats_BitRate                        : 32
    FromStats_Duration                       : 01:59:53.810000000
    FromStats_FrameCount                     : 922
    FromStats_StreamSize                     : 28961

    Text #3
    ID                                       : 6
    Format                                   : PGS
    Muxing mode                              : zlib
    Codec ID                                 : S_HDMV/PGS
    Codec ID/Info                            : Picture based subtitle format used on BDs/HD-DVDs
    Title                                    : PGS
    Language                                 : Spanish
    Default                                  : No
    Forced                                   : No
    Statistics Tags Issue                    : mkvmerge v10.0.0 ('To Drown In You') 64bit 2017-10-31 05:46:26 / mkvmerge v10.0.0 ('To Drown In You') 64bit 2017-10-31 05:46:26 / UTC 2017-10-29T12:21:59Z
    FromStats_BitRate                        : 7430
    FromStats_Duration                       : 02:08:45.550000000
    FromStats_FrameCount                     : 1860
    FromStats_StreamSize                     : 7175480

    Menu
    00:00:00.000                             : :Chapter 1
    00:02:58.261                             : :Chapter 2
    00:06:21.172                             : :Chapter 3
    00:10:21.871                             : :Chapter 4
    00:14:27.992                             : :Chapter 5
    00:20:05.621                             : :Chapter 6
    00:22:47.783                             : :Chapter 7
    00:25:38.620                             : :Chapter 8
    00:30:46.803                             : :Chapter 9
    00:34:33.655                             : :Chapter 10
    00:40:32.263                             : :Chapter 11
    00:45:52.250                             : :Chapter 12
    00:50:15.471                             : :Chapter 13
    00:54:41.028                             : :Chapter 14
    00:59:01.246                             : :Chapter 15
    01:03:42.068                             : :Chapter 16
    01:07:06.064                             : :Chapter 17
    01:11:24.489                             : :Chapter 18
    01:14:38.933                             : :Chapter 19
    01:23:40.849                             : :Chapter 20
    01:29:17.727                             : :Chapter 21
    01:31:25.021                             : :Chapter 22
    01:36:37.667                             : :Chapter 23
    01:41:09.105                             : :Chapter 24
    01:46:42.313                             : :Chapter 25
    01:50:18.362                             : :Chapter 26
    01:54:16.683                             : :Chapter 27
    01:58:12.877                             : :Chapter 28

  • Peso: 6.01 GiB

Sinopsis

La segunda parte de la batalla final entre las fuerzas del bien y el mal. El juego nunca ha sido tan peligroso y nadie está a salvo. Se acerca el momento de la confrontación final entre Harry Potter y Lord Voldemort. Todo termina aquí…

Ficha técnica

  • Titulo original: Harry Potter and the Deathly Hallows: Part 2
  • Fecha de lanzamiento: 07-07-2011 (United Kingdom, United States of America)
  • Director: David Yates
  • Género: Aventura, Familia, Fantasía
  • Puntuación: 1.0 1 votos
  • Duración:
    2 h 10 min

Video trailer de la película

Enlaces de descarga

Rip de Bluray

Descargar Harry Potter y las reliquias de la muerte – Parte II (2011) Full 1080p Latino




Aportes de DPeliculasHDmega la pass es:dpeliculashdmega.org Aportes de CinemaniaHD la pass es:cinemaniahdd.com
Guardado en : Aventura , Familia , Fantasía

Películas relacionadas

Comentarios 3
  • luis - 10 noviembre, 2017

    ya me lo descargue toda la saga . gracias

  • KIKE - 02 noviembre, 2017

    Tienen pensado subir Wonder woman y spiderman homecoming en 4k ???
    Saludos
    Excelente saga ..
    Gracias

    • Dpelis2 pelis2 - 02 noviembre, 2017

      Esas vienen mas adelante amigo. Saludos