Harry Potter y las reliquias de la muerte – Parte I (2010) 4K HDR Latino

980 vistas
1 estrella2 estrellas3 estrellas4 estrellas5 estrellas (3 votos, promedio: 2,33 de 5)
Cargando…

Información de Harry Potter y las reliquias de la muerte – Parte I (2010) 4K HDR Latino

Datos de la película

  • Calidad: 4K HDR
  • Audio: Español Latino AC3 5.1 BLURAY - Ingles AC3 5.1 BLURAY
  • Subtitulos: Español Latino PGS - Ingles PGS
  • Resolución: 3840x1600p
  • Formato: MKV
  • Codec: H.265
  • Encoder: Dracarys
  • Mediainfo: Clic para Mostrar Datos Ver
  • Format                                   : Matroska
    Format version                           : Version 4 / Version 2
    File size                                : 16.8 GiB
    Duration                                 : 2 h 26 min
    Overall bit rate                         : 16.4 Mb/s
    Movie name                               : CinemaniaHDD.com
    Encoded date                             : UTC 2018-02-28 22:13:00
    Writing application                      : mkvmerge v15.0.0 ('Duel with the Devil') 64-bit
    Writing library                          : libebml v1.3.5 + libmatroska v1.4.5

    Video
    ID                                       : 1
    Format                                   : HEVC
    Format/Info                              : High Efficiency Video Coding
    Format profile                           : Main 10@L5.1@High
    Codec ID                                 : V_MPEGH/ISO/HEVC
    Duration                                 : 2 h 26 min
    Bit rate                                 : 15.1 Mb/s
    Width                                    : 3 840 pixels
    Height                                   : 1 600 pixels
    Display aspect ratio                     : 2.40:1
    Frame rate mode                          : Constant
    Frame rate                               : 23.976 (24000/1001) FPS
    Color space                              : YUV
    Chroma subsampling                       : 4:2:0 (Type 2)
    Bit depth                                : 10 bits
    Bits/(Pixel*Frame)                       : 0.103
    Stream size                              : 15.5 GiB (92%)
    Title                                    : Harry Potter y las reliquias de la muerte - Parte I (2010) 4K HDR Latino
    Writing library                          : x265 2.6+22-ff02513b92c0:[Windows][GCC 6.3.0][64 bit] 10bit
    Encoding settings                        : cpuid=1050111 / frame-threads=4 / numa-pools=15,15 / wpp / no-pmode / no-pme / no-psnr / no-ssim / log-level=2 / input-csp=1 / input-res=3840x1600 / interlace=0 / total-frames=210156 / level-idc=51 / high-tier=1 / uhd-bd=0 / ref=4 / no-allow-non-conformance / repeat-headers / annexb / aud / hrd / info / hash=0 / no-temporal-layers / no-open-gop / min-keyint=1 / keyint=24 / gop-lookahead=0 / bframes=4 / b-adapt=2 / b-pyramid / bframe-bias=0 / rc-lookahead=25 / lookahead-slices=4 / scenecut=40 / radl=0 / no-intra-refresh / ctu=64 / min-cu-size=8 / rect / no-amp / max-tu-size=32 / tu-inter-depth=1 / tu-intra-depth=1 / limit-tu=0 / rdoq-level=2 / dynamic-rd=0.00 / no-ssim-rd / signhide / no-tskip / nr-intra=0 / nr-inter=0 / no-constrained-intra / no-strong-intra-smoothing / max-merge=3 / limit-refs=3 / limit-modes / me=3 / subme=3 / merange=57 / temporal-mvp / weightp / no-weightb / no-analyze-src-pics / deblock=-3:-3 / no-sao / no-sao-non-deblock / rd=4 / no-early-skip / rskip / no-fast-intra / no-tskip-fast / no-cu-lossless / no-b-intra / no-splitrd-skip / rdpenalty=0 / psy-rd=2.00 / psy-rdoq=1.00 / no-rd-refine / no-lossless / cbqpoffs=0 / crqpoffs=0 / rc=crf / crf=17.0 / qcomp=0.60 / qpstep=4 / stats-write=0 / stats-read=0 / vbv-maxrate=160000 / vbv-bufsize=160000 / vbv-init=0.9 / crf-max=0.0 / crf-min=0.0 / ipratio=1.40 / pbratio=1.30 / aq-mode=1 / aq-strength=1.00 / cutree / zone-count=0 / no-strict-cbr / qg-size=32 / no-rc-grain / qpmax=69 / qpmin=0 / no-const-vbv / sar=1 / overscan=0 / videoformat=5 / range=0 / colorprim=9 / transfer=16 / colormatrix=9 / chromaloc=1 / chromaloc-top=2 / chromaloc-bottom=2 / display-window=0 / master-display=G(13250,34500)B(7500,3000)R(34000,16000)WP(15635,16450)L(40000000,50) / max-cll=2632,431 / min-luma=0 / max-luma=1023 / log2-max-poc-lsb=8 / vui-timing-info / vui-hrd-info / slices=1 / no-opt-qp-pps / no-opt-ref-list-length-pps / no-multi-pass-opt-rps / scenecut-bias=0.05 / no-opt-cu-delta-qp / no-aq-motion / hdr / hdr-opt / no-dhdr10-opt / analysis-save=(null) / analysis-load=(null) / analysis-reuse-level=5 / scale-factor=0 / refine-intra=0 / refine-inter=0 / refine-mv=0 / no-limit-sao / ctu-info=0 / no-lowpass-dct / refine-mv-type=0 / copy-pic=1
    Language                                 : English
    Default                                  : Yes
    Forced                                   : No
    Color range                              : Limited
    Color primaries                          : BT.2020
    Transfer characteristics                 : PQ
    Matrix coefficients                      : BT.2020 non-constant
    Mastering display color primaries        : R: x=0.680000 y=0.320000, G: x=0.265000 y=0.690000, B: x=0.150000 y=0.060000, White point: x=0.312700 y=0.329000
    Mastering display luminance              : min: 0.0050 cd/m2, max: 4000.0000 cd/m2
    Maximum Content Light Level              : 2632 cd/m2
    Maximum Frame-Average Light Level        : 431 cd/m2

    Audio #1
    ID                                       : 2
    Format                                   : AC-3
    Format/Info                              : Audio Coding 3
    Format settings, Endianness              : Big
    Codec ID                                 : A_AC3
    Duration                                 : 2 h 26 min
    Bit rate mode                            : Constant
    Bit rate                                 : 640 kb/s
    Channel(s)                               : 6 channels
    Channel positions                        : Front: L C R, Side: L R, LFE
    Sampling rate                            : 48.0 kHz
    Frame rate                               : 31.250 FPS (1536 SPF)
    Bit depth                                : 16 bits
    Compression mode                         : Lossy
    Stream size                              : 669 MiB (4%)
    Title                                    : Latino
    Language                                 : Spanish
    Service kind                             : Complete Main
    Default                                  : Yes
    Forced                                   : No

    Audio #2
    ID                                       : 3
    Format                                   : AC-3
    Format/Info                              : Audio Coding 3
    Format settings, Endianness              : Big
    Codec ID                                 : A_AC3
    Duration                                 : 2 h 26 min
    Bit rate mode                            : Constant
    Bit rate                                 : 640 kb/s
    Channel(s)                               : 6 channels
    Channel positions                        : Front: L C R, Side: L R, LFE
    Sampling rate                            : 48.0 kHz
    Frame rate                               : 31.250 FPS (1536 SPF)
    Bit depth                                : 16 bits
    Compression mode                         : Lossy
    Stream size                              : 669 MiB (4%)
    Title                                    : English
    Language                                 : English
    Service kind                             : Complete Main
    Default                                  : No
    Forced                                   : No

    Text #1
    ID                                       : 4
    Format                                   : UTF-8
    Codec ID                                 : S_TEXT/UTF8
    Codec ID/Info                            : UTF-8 Plain Text
    Duration                                 : 2 h 5 min
    Bit rate                                 : 0 b/s
    Count of elements                        : 22
    Stream size                              : 730 Bytes (0%)
    Title                                    : Forzados
    Language                                 : Spanish
    Default                                  : Yes
    Forced                                   : No

    Text #2
    ID                                       : 5
    Format                                   : UTF-8
    Codec ID                                 : S_TEXT/UTF8
    Codec ID/Info                            : UTF-8 Plain Text
    Duration                                 : 2 h 25 min
    Bit rate                                 : 38 b/s
    Count of elements                        : 1246
    Stream size                              : 40.6 KiB (0%)
    Title                                    : Latino
    Language                                 : Spanish
    Default                                  : No
    Forced                                   : No

    Text #3
    ID                                       : 6
    Format                                   : PGS
    Muxing mode                              : zlib
    Codec ID                                 : S_HDMV/PGS
    Codec ID/Info                            : Picture based subtitle format used on BDs/HD-DVDs
    Duration                                 : 2 h 25 min
    Bit rate                                 : 21.4 kb/s
    Count of elements                        : 2492
    Stream size                              : 22.3 MiB (0%)
    Title                                    : Latino
    Language                                 : Spanish
    Default                                  : No
    Forced                                   : No

    Text #4
    ID                                       : 7
    Format                                   : PGS
    Muxing mode                              : zlib
    Codec ID                                 : S_HDMV/PGS
    Codec ID/Info                            : Picture based subtitle format used on BDs/HD-DVDs
    Duration                                 : 2 h 25 min
    Bit rate                                 : 27.0 kb/s
    Count of elements                        : 2892
    Stream size                              : 28.1 MiB (0%)
    Title                                    : SDH
    Language                                 : English
    Default                                  : No
    Forced                                   : No

    Menu
    00:00:00.000                             : en:00:00:00.000
    00:04:18.467                             : en:00:04:18.467
    00:09:46.586                             : en:00:09:46.586
    00:15:16.165                             : en:00:15:16.165
    00:19:13.527                             : en:00:19:13.527
    00:26:04.188                             : en:00:26:04.188
    00:31:37.729                             : en:00:31:37.729
    00:35:43.266                             : en:00:35:43.266
    00:41:37.495                             : en:00:41:37.495
    00:45:45.576                             : en:00:45:45.576
    00:50:14.053                             : en:00:50:14.053
    00:55:02.674                             : en:00:55:02.674
    00:58:31.133                             : en:00:58:31.133
    01:03:41.317                             : en:01:03:41.317
    01:10:02.156                             : en:01:10:02.156
    01:14:30.883                             : en:01:14:30.883
    01:18:48.807                             : en:01:18:48.807
    01:22:17.558                             : en:01:22:17.558
    01:24:55.048                             : en:01:24:55.048
    01:28:03.153                             : en:01:28:03.153
    01:32:34.132                             : en:01:32:34.132
    01:37:40.188                             : en:01:37:40.188
    01:42:37.526                             : en:01:42:37.526
    01:47:54.093                             : en:01:47:54.093
    01:53:48.071                             : en:01:53:48.071
    01:57:30.919                             : en:01:57:30.919
    02:01:27.947                             : en:02:01:27.947
    02:05:42.118                             : en:02:05:42.118
    02:09:42.692                             : en:02:09:42.692
    02:13:15.988                             : en:02:13:15.988

  • Peso: 16.8 GiB

Sinopsis

Primera parte de la adaptación al cine del último libro de la saga Harry Potter, “Harry Potter y las Reliquias de la Muerte”. La historia continúa desde el punto en el que terminó “El príncipe mestizo”: Una tarea casi imposible cae sobre los hombros de Harry: deberá encontrar y destruir los horrocruxes restantes para dar fin al reinado de Lord Voldemort. En el episodio final de la saga, el hechicero de 17 años parte junto con sus amigos Hermione Granger y Ron Weasley en un peligroso viaje por Inglaterra para encontrar los objetos que contienen los fragmentos del alma del Señor Tenebroso, los cuales garantizan su longevidad. Pero el camino no será fácil pues el lado oscuro adquiere más poder con cada minuto que pasa y las lealtades serán puestas a prueba. Harry deberá usar todos los conocimientos que gracias a Dumbledore ha adquirido sobre su enemigo para poder encontrar la forma de sobrevivir a esta última aventura

Ficha técnica

  • Titulo original: Harry Potter and the Deathly Hallows: Part 1
  • Fecha de lanzamiento: 17-10-2010 (United Kingdom, United States of America)
  • Director: David Yates
  • Género: 4K HDR, 4K UHD, Aventura, Familia, Fantasía
  • Puntuación: 2.3 3 votos
  • Duración:
    2 h 26 min

Video trailer de la película

Enlaces de descarga

Rip de Bluray

Descargar Harry Potter y las reliquias de la muerte – Parte I (2010) 4K HDR Latino




Aportes de DPeliculasHDmega la pass es:dpeliculashdmega.org Aportes de CinemaniaHD la pass es:cinemaniahdd.com
Guardado en : 4K HDR , 4K UHD , Aventura , Familia , Fantasía

Películas relacionadas

  • La brújula dorada (2007) Full 1080p Latino

    2007
    La brújula dorada (2007) Full 1080p Latino

    5.0 1h 53m 2007

    Descargar La brújula dorada (2007) Full 1080p Latino; Mega, Google Drive. Historia de una niña de 12...

    Director: Nikki Clapp

    Género: Aventura

    Actores: Tom Courtenay

  • La brújula dorada (2007) 1080p Latino

    2007
    La brújula dorada (2007) 1080p Latino

    4.2 1h 53m 2007

    Descargar La brújula dorada (2007) 1080p Latino; Mega, Google Drive. Historia de una niña de 12 años...

    Director: Nikki Clapp

    Género: Aventura

    Actores: Tom Courtenay

  • El séptimo hijo (2014) Full 1080p Latino

    2014
    El séptimo hijo (2014) Full 1080p Latino

    4.4 1h 42m 2014

    Siglo XVIII. El joven Thomas (Ben Barnes, 'El retrato de Dorian Gray') tendrá que aprender a ser mago...

    Director: Sergei Bodrov

    Género: Aventura

    Actores: Zahf Paroo

  • The Shanghai Job (2017) 1080p Latino

    2017
    The Shanghai Job (2017) 1080p Latino

    5.0 1h 35m 2017

    The Shanghai Job [S.M.A.R.T. Chase] (2017) 1080p Latino. Mega, Google Drive; A Danny Stratton, un agente...

    Director: Charles Martin

    Género: Acción

    Actores: Xing Yu

Comentarios 0