Guardianes del día (2006) Full 1080p Latino

1.034 vistas
1 estrella2 estrellas3 estrellas4 estrellas5 estrellas (2 votos, promedio: 4,50 de 5)
Cargando…

Información de Guardianes del día (2006) Full 1080p Latino

Datos de la película

  • Calidad: Full 1080p
  • Audio: Español Latino AC3 5.1 BLURAY - Ingles DTS 5.1 BLURAY
  • Subtitulos: Español Latino PGS - Ingles PGS
  • Resolución: 1920x1080p
  • Formato: MKV
  • Codec: H.264
  • Encoder: Dracarys
  • Mediainfo: Clic para Mostrar Datos Ver
  • Format                                   : Matroska
    Format version                           : Version 4 / Version 2
    File size                                : 16.0 GiB
    Duration                                 : 2 h 25 min
    Overall bit rate                         : 15.7 Mb/s
    Movie name                               : CinemaniaHDD.com
    Encoded date                             : UTC 2018-05-03 23:50:32 / UTC 2018-04-24T06:33:46Z
    Writing application                      : mkvmerge v15.0.0 ('Duel with the Devil') 64-bit
    Writing library                          : libebml v1.3.5 + libmatroska v1.4.5 / Lavf57.7.2

    Video
    ID                                       : 1
    Format                                   : AVC
    Format/Info                              : Advanced Video Codec
    Format profile                           : High@L4.1
    Format settings                          : CABAC / 4 Ref Frames
    Format settings, CABAC                   : Yes
    Format settings, RefFrames               : 4 frames
    Codec ID                                 : V_MPEG4/ISO/AVC
    Duration                                 : 2 h 25 min
    Bit rate                                 : 14.2 Mb/s
    Width                                    : 1 920 pixels
    Height                                   : 1 080 pixels
    Display aspect ratio                     : 16:9
    Frame rate mode                          : Constant
    Frame rate                               : 23.976 (24000/1001) FPS
    Color space                              : YUV
    Chroma subsampling                       : 4:2:0
    Bit depth                                : 8 bits
    Scan type                                : Progressive
    Bits/(Pixel*Frame)                       : 0.285
    Stream size                              : 14.4 GiB (90%)
    Title                                    : Guardianes del día (2006) Full 1080p Latino
    Writing library                          : x264 core 148 r2708 86b7198
    Encoding settings                        : cabac=1 / ref=4 / deblock=1:0:0 / analyse=0x3:0x133 / me=esa / subme=9 / psy=1 / psy_rd=1.00:0.00 / mixed_ref=1 / me_range=16 / chroma_me=1 / trellis=2 / 8x8dct=1 / cqm=0 / deadzone=21,11 / fast_pskip=1 / chroma_qp_offset=-2 / threads=34 / lookahead_threads=2 / sliced_threads=0 / nr=0 / decimate=1 / interlaced=0 / bluray_compat=0 / constrained_intra=0 / bframes=3 / b_pyramid=2 / b_adapt=2 / b_bias=0 / direct=3 / weightb=1 / open_gop=0 / weightp=2 / keyint=240 / keyint_min=24 / scenecut=40 / intra_refresh=0 / rc_lookahead=60 / rc=crf / mbtree=1 / crf=20.0 / qcomp=0.60 / qpmin=0 / qpmax=69 / qpstep=4 / vbv_maxrate=62500 / vbv_bufsize=78125 / crf_max=0.0 / nal_hrd=none / filler=0 / ip_ratio=1.40 / aq=1:1.00
    Language                                 : English
    Default                                  : Yes
    Forced                                   : No
    Color range                              : Limited
    Color primaries                          : BT.709
    Transfer characteristics                 : BT.709
    Matrix coefficients                      : BT.709
    Statistics Tags Issue                    : mkvmerge v15.0.0 ('Duel with the Devil') 64-bit 2018-05-03 23:50:32 / mkvmerge v15.0.0 ('Duel with the Devil') 64-bit 2018-05-03 23:50:32 / UTC 2018-04-24T06:33:46Z
    FromStats_BitRate                        : 14449134
    FromStats_Duration                       : 02:25:47.614000000
    FromStats_FrameCount                     : 209733
    FromStats_StreamSize                     : 15799431862

    Audio #1
    ID                                       : 2
    Format                                   : AC-3
    Format/Info                              : Audio Coding 3
    Format settings, Endianness              : Big
    Codec ID                                 : A_AC3
    Duration                                 : 2 h 25 min
    Bit rate mode                            : Constant
    Bit rate                                 : 448 kb/s
    Channel(s)                               : 6 channels
    Channel positions                        : Front: L C R, Side: L R, LFE
    Sampling rate                            : 48.0 kHz
    Frame rate                               : 31.250 FPS (1536 SPF)
    Bit depth                                : 16 bits
    Compression mode                         : Lossy
    Stream size                              : 467 MiB (3%)
    Language                                 : Spanish
    Service kind                             : Complete Main
    Default                                  : Yes
    Forced                                   : No
    Statistics Tags Issue                    : mkvmerge v15.0.0 ('Duel with the Devil') 64-bit 2018-05-03 23:50:32 / mkvmerge v15.0.0 ('Duel with the Devil') 64-bit 2018-05-03 23:50:32 / UTC 2018-04-24T06:33:46Z
    FromStats_BitRate                        : 448000
    FromStats_Duration                       : 02:25:47.616000000
    FromStats_FrameCount                     : 273363
    FromStats_StreamSize                     : 489866496

    Audio #2
    ID                                       : 3
    Format                                   : DTS
    Format/Info                              : Digital Theater Systems
    Mode                                     : 16
    Format settings, Endianness              : Big
    Codec ID                                 : A_DTS
    Duration                                 : 2 h 25 min
    Bit rate mode                            : Constant
    Bit rate                                 : 768 kb/s
    Channel(s)                               : 6 channels
    Channel positions                        : Front: L C R, Side: L R, LFE
    Sampling rate                            : 48.0 kHz
    Frame rate                               : 93.750 FPS (512 SPF)
    Bit depth                                : 24 bits
    Compression mode                         : Lossy
    Stream size                              : 801 MiB (5%)
    Language                                 : English
    Default                                  : No
    Forced                                   : No
    Statistics Tags Issue                    : mkvmerge v15.0.0 ('Duel with the Devil') 64-bit 2018-05-03 23:50:32 / mkvmerge v15.0.0 ('Duel with the Devil') 64-bit 2018-05-03 23:50:32 / UTC 2018-04-24T06:33:46Z
    FromStats_BitRate                        : 767999
    FromStats_Duration                       : 02:25:47.606000000
    FromStats_FrameCount                     : 820088
    FromStats_StreamSize                     : 839770112

    Text #1
    ID                                       : 4
    Format                                   : PGS
    Muxing mode                              : zlib
    Codec ID                                 : S_HDMV/PGS
    Codec ID/Info                            : Picture based subtitle format used on BDs/HD-DVDs
    Language                                 : English
    Default                                  : No
    Forced                                   : No
    Statistics Tags Issue                    : mkvmerge v15.0.0 ('Duel with the Devil') 64-bit 2018-05-03 23:50:32 / mkvmerge v15.0.0 ('Duel with the Devil') 64-bit 2018-05-03 23:50:32 / UTC 2018-04-24T06:33:46Z
    FromStats_BitRate                        : 22123
    FromStats_Duration                       : 02:25:16.166000000
    FromStats_FrameCount                     : 2626
    FromStats_StreamSize                     : 24104374

    Text #2
    ID                                       : 5
    Format                                   : PGS
    Muxing mode                              : zlib
    Codec ID                                 : S_HDMV/PGS
    Codec ID/Info                            : Picture based subtitle format used on BDs/HD-DVDs
    Language                                 : Spanish
    Default                                  : No
    Forced                                   : No
    Statistics Tags Issue                    : mkvmerge v15.0.0 ('Duel with the Devil') 64-bit 2018-05-03 23:50:32 / mkvmerge v15.0.0 ('Duel with the Devil') 64-bit 2018-05-03 23:50:32 / UTC 2018-04-24T06:33:46Z
    FromStats_BitRate                        : 20973
    FromStats_Duration                       : 02:25:16.166000000
    FromStats_FrameCount                     : 2640
    FromStats_StreamSize                     : 22851381

    Menu
    00:00:00.000                             : :Chapter 1
    00:05:48.139                             : :Chapter 2
    00:08:30.218                             : :Chapter 3
    00:12:35.838                             : :Chapter 4
    00:17:00.353                             : :Chapter 5
    00:20:30.271                             : :Chapter 6
    00:23:24.320                             : :Chapter 7
    00:26:59.201                             : :Chapter 8
    00:32:45.797                             : :Chapter 9
    00:35:15.530                             : :Chapter 10
    00:38:31.976                             : :Chapter 11
    00:40:52.450                             : :Chapter 12
    00:45:38.069                             : :Chapter 13
    00:49:48.777                             : :Chapter 14
    00:54:10.622                             : :Chapter 15
    00:57:15.849                             : :Chapter 16
    01:00:01.556                             : :Chapter 17
    01:01:27.142                             : :Chapter 18
    01:05:13.576                             : :Chapter 19
    01:06:54.260                             : :Chapter 20
    01:08:56.716                             : :Chapter 21
    01:13:09.552                             : :Chapter 22
    01:16:12.026                             : :Chapter 23
    01:20:04.591                             : :Chapter 24
    01:22:50.174                             : :Chapter 25
    01:28:49.825                             : :Chapter 26
    01:30:42.771                             : :Chapter 27
    01:34:49.475                             : :Chapter 28
    01:39:45.813                             : :Chapter 29
    01:45:16.477                             : :Chapter 30
    01:46:56.327                             : :Chapter 31
    01:50:32.835                             : :Chapter 32
    01:52:12.935                             : :Chapter 33
    01:54:37.120                             : :Chapter 34
    01:57:41.805                             : :Chapter 35
    02:01:07.010                             : :Chapter 36
    02:08:46.969                             : :Chapter 37
    02:10:28.863                             : :Chapter 38
    02:13:10.065                             : :Chapter 39
    02:17:02.131                             : :Chapter 40

  • Peso: 16.0 GiB

Sinopsis

Secuela del popular filme fantástico ruso “Guardianes de la noche” (2004). Ambientada en el Moscú de nuestros días, la historia gira en torno al conflicto y al equilibrio que vienen manteniendo las fuerzas de la luz y la oscuridad como consecuencia de una tregua establecida desde la Edad Media entre ambos bandos contrapuestos. Pero esta antigua guerra entre las fuerzas de la Luz y la Oscuridad está a punto de alcanzar un trágico resultado. Cada bando ha ganado para sí a un potente Gran Otro, el choque entre ambos se adivina inevitable y Anton Gorodetsky se ve envuelto una vez más en medio de todo este conflicto. Por un lado está el hijo de Anton, Egor, que se ha sumado a las filas de la Oscuridad, mientras que Svetlana, de la que Anton está enamorado, representa la esperanza de la Luz. Pero esto no es más que el comienzo de sus problemas…

Ficha técnica

Video trailer de la película

Enlaces de descarga

Rip de Bluray

Descargar Guardianes del día (2006) Full 1080p Latino




Aportes de DPeliculasHDmega la pass es:dpeliculashdmega.org Aportes de CinemaniaHD la pass es:cinemaniahdd.com

Películas relacionadas

  • Lady Bird (2017) Full 1080p Latino

    2017
    Lady Bird (2017) Full 1080p Latino

    5.0 1h 34m 2017

    Sacramento, California, año 2002. Una joven llamada Christine McPherson (Saoirse Ronan), apodada como...

    Director: Jonas Spaccarotelli

    Género: Comedia

    Actores: Tracy Letts

  • Plan de escape (2013) Full 1080p Latino

    2013
    Plan de escape (2013) Full 1080p Latino

    3.0 1h 56m 2013

    El experto en seguridad Ray Breslin prueba sus teorías poco convencionales en diseño de prisiones elaborando...

    Director: Mikael Håfström

    Género: Acción

    Actores: Vinnie Jones

Comentarios 0