Gladiator (2000) Full 1080p Latino

1.463 vistas
1 estrella2 estrellas3 estrellas4 estrellas5 estrellas (1 votos, promedio: 5,00 de 5)
Cargando…

Información de Gladiator (2000) Full 1080p Latino

Datos de la película

  • Calidad: Full 1080p
  • Audio: Español Latino DTS 5.1 BLURAY - Ingles DTS 5.1 BLURAY
  • Subtitulos: Español Latino PGS - Ingles PGS
  • Resolución: 1920X1080p
  • Formato: MKV
  • Codec: H.264
  • Encoder: Dracarys
  • Mediainfo: Clic para Mostrar Datos Ver
  • Format                                   : Matroska
    Format version                           : Version 4 / Version 2
    File size                                : 9.37 GiB
    Duration                                 : 2 h 50 min
    Overall bit rate                         : 7 844 kb/s
    Movie name                               : CinemaniaHDD.com
    Encoded date                             : UTC 2018-03-16 05:28:53 / UTC 2018-03-15T18:22:44Z
    Writing application                      : mkvmerge v15.0.0 ('Duel with the Devil') 64-bit
    Writing library                          : libebml v1.3.5 + libmatroska v1.4.5 / Lavf57.7.2

    Video
    ID                                       : 1
    Format                                   : AVC
    Format/Info                              : Advanced Video Codec
    Format profile                           : High@L4.1
    Format settings                          : CABAC / 4 Ref Frames
    Format settings, CABAC                   : Yes
    Format settings, RefFrames               : 4 frames
    Codec ID                                 : V_MPEG4/ISO/AVC
    Duration                                 : 2 h 50 min
    Bit rate                                 : 5 411 kb/s
    Width                                    : 1 920 pixels
    Height                                   : 1 080 pixels
    Display aspect ratio                     : 16:9
    Frame rate mode                          : Constant
    Frame rate                               : 23.976 (24000/1001) FPS
    Color space                              : YUV
    Chroma subsampling                       : 4:2:0
    Bit depth                                : 8 bits
    Scan type                                : Progressive
    Bits/(Pixel*Frame)                       : 0.109
    Stream size                              : 6.46 GiB (69%)
    Title                                    : Gladiator (2000) Full 1080p Latino
    Writing library                          : x264 core 148 r2708 86b7198
    Encoding settings                        : cabac=1 / ref=4 / deblock=1:0:0 / analyse=0x3:0x133 / me=esa / subme=9 / psy=1 / psy_rd=1.00:0.00 / mixed_ref=1 / me_range=16 / chroma_me=1 / trellis=2 / 8x8dct=1 / cqm=0 / deadzone=21,11 / fast_pskip=1 / chroma_qp_offset=-2 / threads=34 / lookahead_threads=2 / sliced_threads=0 / nr=0 / decimate=1 / interlaced=0 / bluray_compat=0 / constrained_intra=0 / bframes=3 / b_pyramid=2 / b_adapt=2 / b_bias=0 / direct=3 / weightb=1 / open_gop=0 / weightp=2 / keyint=240 / keyint_min=24 / scenecut=40 / intra_refresh=0 / rc_lookahead=60 / rc=crf / mbtree=1 / crf=20.0 / qcomp=0.60 / qpmin=0 / qpmax=69 / qpstep=4 / vbv_maxrate=62500 / vbv_bufsize=78125 / crf_max=0.0 / nal_hrd=none / filler=0 / ip_ratio=1.40 / aq=1:1.00
    Default                                  : Yes
    Forced                                   : No
    Color range                              : Limited
    Color primaries                          : BT.709
    Transfer characteristics                 : BT.709
    Matrix coefficients                      : BT.709
    Statistics Tags Issue                    : mkvmerge v15.0.0 ('Duel with the Devil') 64-bit 2018-03-16 05:28:53 / mkvmerge v15.0.0 ('Duel with the Devil') 64-bit 2018-03-16 05:28:53 / UTC 2018-03-15T18:22:44Z
    FromStats_BitRate                        : 5549707
    FromStats_Duration                       : 02:50:57.039000000
    FromStats_FrameCount                     : 245923
    FromStats_StreamSize                     : 7115446312

    Audio #1
    ID                                       : 2
    Format                                   : DTS
    Format/Info                              : Digital Theater Systems
    Mode                                     : 16
    Format settings, Endianness              : Big
    Codec ID                                 : A_DTS
    Duration                                 : 2 h 50 min
    Bit rate mode                            : Constant
    Bit rate                                 : 768 kb/s
    Channel(s)                               : 6 channels
    Channel positions                        : Front: L C R, Side: L R, LFE
    Sampling rate                            : 48.0 kHz
    Frame rate                               : 93.750 FPS (512 SPF)
    Bit depth                                : 24 bits
    Compression mode                         : Lossy
    Stream size                              : 939 MiB (10%)
    Language                                 : Spanish
    Default                                  : No
    Forced                                   : No
    Statistics Tags Issue                    : mkvmerge v15.0.0 ('Duel with the Devil') 64-bit 2018-03-16 05:28:53 / mkvmerge v15.0.0 ('Duel with the Devil') 64-bit 2018-03-16 05:28:53 / UTC 2018-03-15T18:22:44Z
    FromStats_BitRate                        : 767999
    FromStats_Duration                       : 02:50:57.035000000
    FromStats_FrameCount                     : 961597
    FromStats_StreamSize                     : 984675328

    Audio #2
    ID                                       : 3
    Format                                   : DTS
    Format/Info                              : Digital Theater Systems
    Mode                                     : 16
    Format settings, Endianness              : Big
    Codec ID                                 : A_DTS
    Duration                                 : 2 h 50 min
    Bit rate mode                            : Constant
    Bit rate                                 : 1 509 kb/s
    Channel(s)                               : 6 channels
    Channel positions                        : Front: L C R, Side: L R, LFE
    Sampling rate                            : 48.0 kHz
    Frame rate                               : 93.750 FPS (512 SPF)
    Bit depth                                : 24 bits
    Compression mode                         : Lossy
    Stream size                              : 1.80 GiB (19%)
    Language                                 : English
    Default                                  : Yes
    Forced                                   : No
    Statistics Tags Issue                    : mkvmerge v15.0.0 ('Duel with the Devil') 64-bit 2018-03-16 05:28:53 / mkvmerge v15.0.0 ('Duel with the Devil') 64-bit 2018-03-16 05:28:53 / UTC 2018-03-15T18:22:44Z
    FromStats_BitRate                        : 1508999
    FromStats_Duration                       : 02:50:57.035000000
    FromStats_FrameCount                     : 961597
    FromStats_StreamSize                     : 1934733164

    Text #1
    ID                                       : 4
    Format                                   : PGS
    Muxing mode                              : zlib
    Codec ID                                 : S_HDMV/PGS
    Codec ID/Info                            : Picture based subtitle format used on BDs/HD-DVDs
    Language                                 : Spanish
    Default                                  : No
    Forced                                   : No
    Statistics Tags Issue                    : mkvmerge v15.0.0 ('Duel with the Devil') 64-bit 2018-03-16 05:28:53 / mkvmerge v15.0.0 ('Duel with the Devil') 64-bit 2018-03-16 05:28:53 / UTC 2018-03-15T18:22:44Z
    FromStats_BitRate                        : 21433
    FromStats_Duration                       : 02:49:51.348000000
    FromStats_FrameCount                     : 2669
    FromStats_StreamSize                     : 27304102

    Text #2
    ID                                       : 5
    Format                                   : PGS
    Muxing mode                              : zlib
    Codec ID                                 : S_HDMV/PGS
    Codec ID/Info                            : Picture based subtitle format used on BDs/HD-DVDs
    Language                                 : English
    Default                                  : No
    Forced                                   : No
    Statistics Tags Issue                    : mkvmerge v15.0.0 ('Duel with the Devil') 64-bit 2018-03-16 05:28:53 / mkvmerge v15.0.0 ('Duel with the Devil') 64-bit 2018-03-16 05:28:53 / UTC 2018-03-15T18:22:44Z
    FromStats_BitRate                        : 25901
    FromStats_Duration                       : 02:41:02.361000000
    FromStats_FrameCount                     : 3249
    FromStats_StreamSize                     : 31283171

    Menu
    00:00:00.000                             : :Chapter 1
    00:07:13.308                             : :Chapter 2
    00:12:50.103                             : :Chapter 3
    00:18:44.790                             : :Chapter 4
    00:23:29.366                             : :Chapter 5
    00:32:58.435                             : :Chapter 6
    00:37:34.919                             : :Chapter 7
    00:40:50.782                             : :Chapter 8
    00:47:32.767                             : :Chapter 9
    00:51:35.884                             : :Chapter 10
    00:55:44.424                             : :Chapter 11
    01:02:21.321                             : :Chapter 12
    01:09:57.026                             : :Chapter 13
    01:19:08.327                             : :Chapter 14
    01:29:21.690                             : :Chapter 15
    01:37:11.826                             : :Chapter 16
    01:41:35.840                             : :Chapter 17
    01:51:58.879                             : :Chapter 18
    01:56:36.364                             : :Chapter 19
    02:00:43.570                             : :Chapter 20
    02:04:42.308                             : :Chapter 21
    02:12:19.098                             : :Chapter 22
    02:13:32.671                             : :Chapter 23
    02:24:15.522                             : :Chapter 24
    02:28:48.795                             : :Chapter 25
    02:34:20.877                             : :Chapter 26
    02:38:43.681                             : :Chapter 27
    02:42:57.851                             : :Chapter 28

  • Peso: 9.37 GiB

Sinopsis

Máximo, General de las Legiones Romanas, es querido por todos, incluso por el César, Marco Aurelio, que antes de morir le elige a él como sucesor dejando de lado a su propio hijo, Cómodo. Cómodo movido por el odio prepara una conspiración contra Máximo, le condena a él y su familia a muerte. Máximo intentará salvar a su mujer y su hijo pero cuando llega es demasiado tarde, Cómodo se le ha adelantado. Máximo volverá a Roma como gladiador en busca de venganza.

Ficha técnica

Video trailer de la película

Enlaces de descarga

Rip de Bluray

Descargar Gladiator (2000) Full 1080p Latino




Aportes de DPeliculasHDmega la pass es:dpeliculashdmega.org Aportes de CinemaniaHD la pass es:cinemaniahdd.com

Películas relacionadas

  • Occupation (2018) WEBDL 1080p Subtitulada

    2018
    Occupation (2018) WEBDL 1080p Subtitulada

    0.0 1h 59m 2018

    El film se centra en un grupo de civiles que ven como su pequeño pueblo en Australia es aniquilado por...

    Director: Luke Sparke

    Género: Acción

    Actores: Temuera Morrison

  • Tully (2018) 1080p Latino

    2018
    Tully (2018) 1080p Latino

    0.0 1 h 35 min 2018

    La historia de una mujer con tres hijos que, incapaz de lidiar con su bebé recién nacido, contrata...

    Director: Jason Reitman

    Género: Comedia

    Actores: Stormy Ent

  • Si solo pudiera imaginar (2018) Full 1080p Latino

    2018
    Si solo pudiera imaginar (2018) Full 1080p Latino

    5.0 1 h 50 min 2018

    La historia real de la aclamada canción "I Can Only Imagine", la canción cristiana contemporánea más...

    Director: Jon Erwin

    Género: Drama

    Actores: Trace Adkins

  • El Justiciero (2014) Full 1080p Latino

    2014
    El Justiciero (2014) Full 1080p Latino

    4.0 2 h 12 min 2014

    Robert McCall, un antiguo agente de la CIA que lleva ahora una vida tranquila, abandona su retiro para...

    Director: Deirdre Horgan

    Género: Acción

    Actores: Yan Dron

Comentarios 5
  • ocpgaiden - 22 marzo, 2018

    muchisimas gracias por la peli

  • SW - 20 marzo, 2018

    Me pasa lo mismo que luis en el google chrome, en firefox 0 problemas. Acerca de la pelicula, excelente! Muchas gracias por subirla.

  • tepulichester - 18 marzo, 2018

    Sin acortadores y sin tanta publicidad. pocas como esta web. en verdad muchas gracias. por cierto la calidad impecable.

  • luis - 17 marzo, 2018

    no se puede descagtar nada amigto desde ayer ademas tu patgina stga lenta arregtlalo por favor siempre descargo s

    • dpelis - 17 marzo, 2018

      que navegador esta usando?