Ferdinand (2017) Full 1080p Latino

2.526 vistas
1 estrella2 estrellas3 estrellas4 estrellas5 estrellas (1 votos, promedio: 4,00 de 5)
Cargando…

Información de Ferdinand (2017) Full 1080p Latino

Datos de la película

  • Calidad: Full 1080p
  • Audio: Español Latino AC3 5.1 BLURAY - Ingles DTS 5.1 BLURAY
  • Subtitulos: Español Latino PGS - Ingles PGS
  • Resolución: 1920X1080p
  • Formato: MKV
  • Codec: H.264
  • Encoder: Dracarys
  • Mediainfo: Clic para Mostrar Datos Ver
  • Format                                   : Matroska
    Format version                           : Version 4 / Version 2
    File size                                : 3.96 GiB
    Duration                                 : 1 h 48 min
    Overall bit rate                         : 5 250 kb/s
    Movie name                               : CinemaniaHDD.com
    Encoded date                             : UTC 2018-03-07 00:18:45 / UTC 2018-03-06T21:39:52Z
    Writing application                      : mkvmerge v15.0.0 ('Duel with the Devil') 64-bit
    Writing library                          : libebml v1.3.5 + libmatroska v1.4.5 / Lavf57.7.2

    Video
    ID                                       : 1
    Format                                   : AVC
    Format/Info                              : Advanced Video Codec
    Format profile                           : High@L4.1
    Format settings                          : CABAC / 4 Ref Frames
    Format settings, CABAC                   : Yes
    Format settings, RefFrames               : 4 frames
    Codec ID                                 : V_MPEG4/ISO/AVC
    Duration                                 : 1 h 48 min
    Bit rate                                 : 3 188 kb/s
    Width                                    : 1 920 pixels
    Height                                   : 1 080 pixels
    Display aspect ratio                     : 16:9
    Frame rate mode                          : Constant
    Frame rate                               : 23.976 (24000/1001) FPS
    Color space                              : YUV
    Chroma subsampling                       : 4:2:0
    Bit depth                                : 8 bits
    Scan type                                : Progressive
    Bits/(Pixel*Frame)                       : 0.064
    Stream size                              : 2.41 GiB (61%)
    Title                                    : Ferdinand (2017) Full 1080p Latino
    Writing library                          : x264 core 148 r2708 86b7198
    Encoding settings                        : cabac=1 / ref=4 / deblock=1:0:0 / analyse=0x3:0x133 / me=esa / subme=10 / psy=1 / psy_rd=1.00:0.00 / mixed_ref=1 / me_range=24 / chroma_me=1 / trellis=2 / 8x8dct=1 / cqm=0 / deadzone=21,11 / fast_pskip=1 / chroma_qp_offset=-2 / threads=34 / lookahead_threads=5 / sliced_threads=0 / nr=0 / decimate=1 / interlaced=0 / bluray_compat=0 / constrained_intra=0 / bframes=8 / b_pyramid=2 / b_adapt=2 / b_bias=0 / direct=3 / weightb=1 / open_gop=0 / weightp=2 / keyint=240 / keyint_min=24 / scenecut=40 / intra_refresh=0 / rc_lookahead=60 / rc=crf / mbtree=1 / crf=20.0 / qcomp=0.60 / qpmin=0 / qpmax=69 / qpstep=4 / vbv_maxrate=62500 / vbv_bufsize=78125 / crf_max=0.0 / nal_hrd=none / filler=0 / ip_ratio=1.40 / aq=1:1.00
    Language                                 : English
    Default                                  : Yes
    Forced                                   : No
    Color range                              : Limited
    Color primaries                          : BT.709
    Transfer characteristics                 : BT.709
    Matrix coefficients                      : BT.709
    Statistics Tags Issue                    : mkvmerge v15.0.0 ('Duel with the Devil') 64-bit 2018-03-07 00:18:45 / mkvmerge v15.0.0 ('Duel with the Devil') 64-bit 2018-03-07 00:18:45 / UTC 2018-03-06T21:39:52Z
    FromStats_BitRate                        : 3269726
    FromStats_Duration                       : 01:48:05.563000000
    FromStats_FrameCount                     : 155498
    FromStats_StreamSize                     : 2650752214

    Audio #1
    ID                                       : 2
    Format                                   : AC-3
    Format/Info                              : Audio Coding 3
    Format settings, Endianness              : Big
    Codec ID                                 : A_AC3
    Duration                                 : 1 h 48 min
    Bit rate mode                            : Constant
    Bit rate                                 : 448 kb/s
    Channel(s)                               : 6 channels
    Channel positions                        : Front: L C R, Side: L R, LFE
    Sampling rate                            : 48.0 kHz
    Frame rate                               : 31.250 FPS (1536 SPF)
    Bit depth                                : 16 bits
    Compression mode                         : Lossy
    Stream size                              : 346 MiB (9%)
    Language                                 : Spanish
    Service kind                             : Complete Main
    Default                                  : Yes
    Forced                                   : No
    Statistics Tags Issue                    : mkvmerge v15.0.0 ('Duel with the Devil') 64-bit 2018-03-07 00:18:45 / mkvmerge v15.0.0 ('Duel with the Devil') 64-bit 2018-03-07 00:18:45 / UTC 2018-03-06T21:39:52Z
    FromStats_BitRate                        : 448000
    FromStats_Duration                       : 01:48:05.472000000
    FromStats_FrameCount                     : 202671
    FromStats_StreamSize                     : 363186432

    Audio #2
    ID                                       : 3
    Format                                   : DTS
    Format/Info                              : Digital Theater Systems
    Mode                                     : 16
    Format settings, Endianness              : Big
    Codec ID                                 : A_DTS
    Duration                                 : 1 h 48 min
    Bit rate mode                            : Constant
    Bit rate                                 : 1 509 kb/s
    Channel(s)                               : 6 channels
    Channel positions                        : Front: L C R, Side: L R, LFE
    Sampling rate                            : 48.0 kHz
    Frame rate                               : 93.750 FPS (512 SPF)
    Bit depth                                : 24 bits
    Compression mode                         : Lossy
    Stream size                              : 1.14 GiB (29%)
    Language                                 : English
    Default                                  : No
    Forced                                   : No
    Statistics Tags Issue                    : mkvmerge v15.0.0 ('Duel with the Devil') 64-bit 2018-03-07 00:18:45 / mkvmerge v15.0.0 ('Duel with the Devil') 64-bit 2018-03-07 00:18:45 / UTC 2018-03-06T21:39:52Z
    FromStats_BitRate                        : 1508999
    FromStats_Duration                       : 01:48:05.579000000
    FromStats_FrameCount                     : 608023
    FromStats_StreamSize                     : 1223342276

    Text #1
    ID                                       : 4
    Format                                   : PGS
    Muxing mode                              : zlib
    Codec ID                                 : S_HDMV/PGS
    Codec ID/Info                            : Picture based subtitle format used on BDs/HD-DVDs
    Language                                 : English
    Default                                  : No
    Forced                                   : No
    Statistics Tags Issue                    : mkvmerge v15.0.0 ('Duel with the Devil') 64-bit 2018-03-07 00:18:45 / mkvmerge v15.0.0 ('Duel with the Devil') 64-bit 2018-03-07 00:18:45 / UTC 2018-03-06T21:39:52Z
    FromStats_BitRate                        : 39207
    FromStats_Duration                       : 01:47:08.714000000
    FromStats_FrameCount                     : 3662
    FromStats_StreamSize                     : 31506422

    Text #2
    ID                                       : 5
    Format                                   : PGS
    Muxing mode                              : zlib
    Codec ID                                 : S_HDMV/PGS
    Codec ID/Info                            : Picture based subtitle format used on BDs/HD-DVDs
    Language                                 : Spanish
    Default                                  : No
    Forced                                   : No
    Statistics Tags Issue                    : mkvmerge v15.0.0 ('Duel with the Devil') 64-bit 2018-03-07 00:18:45 / mkvmerge v15.0.0 ('Duel with the Devil') 64-bit 2018-03-07 00:18:45 / UTC 2018-03-06T21:39:52Z
    FromStats_BitRate                        : 25718
    FromStats_Duration                       : 01:46:47.276000000
    FromStats_FrameCount                     : 2278
    FromStats_StreamSize                     : 20598310

    Menu
    00:00:00.000                             : :Chapter 1
    00:03:37.801                             : :Chapter 2
    00:08:10.281                             : :Chapter 3
    00:11:51.461                             : :Chapter 4
    00:16:23.524                             : :Chapter 5
    00:24:14.870                             : :Chapter 6
    00:28:30.459                             : :Chapter 7
    00:34:03.124                             : :Chapter 8
    00:37:53.188                             : :Chapter 9
    00:40:54.160                             : :Chapter 10
    00:44:55.359                             : :Chapter 11
    00:49:15.995                             : :Chapter 12
    00:53:27.246                             : :Chapter 13
    00:59:40.952                             : :Chapter 14
    01:03:20.672                             : :Chapter 15
    01:06:23.271                             : :Chapter 16
    01:09:19.822                             : :Chapter 17
    01:12:18.918                             : :Chapter 18
    01:17:33.941                             : :Chapter 19
    01:20:55.142                             : :Chapter 20
    01:25:33.837                             : :Chapter 21
    01:30:38.391                             : :Chapter 22
    01:36:01.839                             : :Chapter 23
    01:38:01.167                             : :Chapter 24

  • Peso: 3.96 GiB

Sinopsis

Ferdinand es un novillo muy tranquilo que prefiere sentarse bajo un árbol a oler las flores que saltar, resoplar y embestirse con otros toros. A medida que va creciendo y haciéndose fuerte, su temperamento no cambia y sigue siendo un toro manso. Un día, unos hombres vienen buscando al toro más grande, rápido y bravo… y Ferdinand es elegido equivocadamente para las corridas de toros de Madrid.

Ficha técnica

Video trailer de la película

Enlaces de descarga

Rip de Bluray

Descargar Ferdinand (2017) Full 1080p Latino




Aportes de DPeliculasHDmega la pass es:dpeliculashdmega.org Aportes de CinemaniaHD la pass es:cinemaniahdd.com

Películas relacionadas

  • Pato pato Ganso (2018) 1080p Latino

    2018
    Pato pato Ganso (2018) 1080p Latino

    0.0 1h 22m 2018

    Después de que sufrió una lesión, un soltero de alto vuelo se enfrenta a dos huérfanos de ojos muy...

    Director: Christopher Jenkins

    Género: 1080p Portada Negra

    Actores: Zendaya

  • ¡Hombre al agua! (2018) 1080p Latino

    2018
    ¡Hombre al agua! (2018) 1080p Latino

    5.0 1 h 52 min 2018

    Kate es una madre soltera, trabajadora, madre de tres hijas, contratada para limpiar un yate de lujo...

    Director: Rob Greenberg

    Género: 1080p Portada Negra

    Actores: Toby Hargrave

  • El alma de la fiesta (2018) 1080p Latino

    2018
    El alma de la fiesta (2018) 1080p Latino

    0.0 1 h 44 min 2018

    Después de haber sido abandonada por su esposo, Deanna, ama de casa, decide darle un giro a su vida...

    Director: Ben Falcone

    Género: Comedia

    Actores: Yani Simone

  • Tully (2018) 1080p Latino

    2018
    Tully (2018) 1080p Latino

    0.0 1 h 35 min 2018

    La historia de una mujer con tres hijos que, incapaz de lidiar con su bebé recién nacido, contrata...

    Director: Jason Reitman

    Género: Comedia

    Actores: Stormy Ent

  • Si solo pudiera imaginar (2018) Full 1080p Latino

    2018
    Si solo pudiera imaginar (2018) Full 1080p Latino

    5.0 1 h 50 min 2018

    La historia real de la aclamada canción "I Can Only Imagine", la canción cristiana contemporánea más...

    Director: Jon Erwin

    Género: Drama

    Actores: Trace Adkins

Comentarios 1
  • Alex - 07 marzo, 2018

    Gracias bajando estas geniales peliculas para la familia