Enlace Mortal (2002) [Open Matte] WEB-DL 1080p Latino

864 vistas
1 estrella2 estrellas3 estrellas4 estrellas5 estrellas (2 votos, promedio: 5,00 de 5)
Cargando…

Información de Enlace Mortal (2002) [Open Matte] WEB-DL 1080p Latino

Datos de la película

  • Calidad: WEBDL
  • Audio: Español Latino AC3 2.0 DVD - Ingles DTS 5.1 BLURAY
  • Subtitulos: Español Latino SRT
  • Resolución: 1920X1080p
  • Formato: MKV
  • Codec: H.264
  • Encoder: Dracarys
  • Mediainfo: Clic para Mostrar Datos Ver
  • Format                                   : Matroska
    Format version                           : Version 4 / Version 2
    File size                                : 8.59 GiB
    Duration                                 : 1 h 21 min
    Overall bit rate mode                    : Variable
    Overall bit rate                         : 15.2 Mb/s
    Movie name                               : CinemaniaHDD.com
    Encoded date                             : UTC 2018-02-01 00:03:26
    Writing application                      : mkvmerge v15.0.0 ('Duel with the Devil') 64-bit
    Writing library                          : libebml v1.3.5 + libmatroska v1.4.5

    Video
    ID                                       : 1
    Format                                   : AVC
    Format/Info                              : Advanced Video Codec
    Format profile                           : High@L4
    Format settings                          : CABAC / 4 Ref Frames
    Format settings, CABAC                   : Yes
    Format settings, RefFrames               : 4 frames
    Codec ID                                 : V_MPEG4/ISO/AVC
    Duration                                 : 1 h 20 min
    Bit rate mode                            : Variable
    Bit rate                                 : 13.5 Mb/s
    Maximum bit rate                         : 15.0 Mb/s
    Width                                    : 1 920 pixels
    Height                                   : 1 080 pixels
    Display aspect ratio                     : 16:9
    Frame rate mode                          : Constant
    Frame rate                               : 23.976 (24000/1001) FPS
    Color space                              : YUV
    Chroma subsampling                       : 4:2:0
    Bit depth                                : 8 bits
    Scan type                                : Progressive
    Bits/(Pixel*Frame)                       : 0.271
    Stream size                              : 7.63 GiB (89%)
    Title                                    : Enlace Mortal (2002) [Open Matte] WEB-DL 1080p Latino
    Language                                 : English
    Default                                  : Yes
    Forced                                   : No
    Color range                              : Limited
    Color primaries                          : BT.709
    Transfer characteristics                 : BT.709
    Matrix coefficients                      : BT.709

    Audio #1
    ID                                       : 2
    Format                                   : AC-3
    Format/Info                              : Audio Coding 3
    Format settings, Endianness              : Big
    Codec ID                                 : A_AC3
    Duration                                 : 1 h 21 min
    Bit rate mode                            : Constant
    Bit rate                                 : 192 kb/s
    Channel(s)                               : 2 channels
    Channel positions                        : Front: L R
    Sampling rate                            : 48.0 kHz
    Frame rate                               : 31.250 FPS (1536 SPF)
    Bit depth                                : 16 bits
    Compression mode                         : Lossy
    Stream size                              : 111 MiB (1%)
    Language                                 : Spanish
    Service kind                             : Complete Main
    Default                                  : Yes
    Forced                                   : No

    Audio #2
    ID                                       : 3
    Format                                   : DTS
    Format/Info                              : Digital Theater Systems
    Mode                                     : 16
    Format settings, Endianness              : Big
    Codec ID                                 : A_DTS
    Duration                                 : 1 h 21 min
    Bit rate mode                            : Constant
    Bit rate                                 : 1 509 kb/s
    Channel(s)                               : 6 channels
    Channel positions                        : Front: L C R, Side: L R, LFE
    Sampling rate                            : 48.0 kHz
    Frame rate                               : 93.750 FPS (512 SPF)
    Bit depth                                : 24 bits
    Compression mode                         : Lossy
    Stream size                              : 874 MiB (10%)
    Language                                 : English
    Default                                  : No
    Forced                                   : No

    Text
    ID                                       : 4
    Format                                   : UTF-8
    Codec ID                                 : S_TEXT/UTF8
    Codec ID/Info                            : UTF-8 Plain Text
    Duration                                 : 1 h 12 min
    Bit rate                                 : 110 b/s
    Count of elements                        : 1257
    Stream size                              : 58.7 KiB (0%)
    Language                                 : Spanish
    Default                                  : No
    Forced                                   : No

    Menu
    00:00:00.000                             : en:Studio Logo
    00:00:25.020                             : en:Opening Credits
    00:00:48.068                             : en:Prologue; Space and Times Square
    00:03:46.324                             : en:Stu wheels and deals; Times Square
    00:08:53.817                             : en:A pizza man interrupts Stu while he makes a call
    00:10:27.966                             : en:Stu calls Pam and invites her to the City Hotel; Phone booth and restaurant
    00:11:50.108                             : en:Stu receives a mysterious phone call; Phone booth
    00:14:18.322                             : en:The Caller rings again and wants Stu to confess to Pam and Kelly
    00:22:44.052                             : en:The Caller warns Stu of his intentions if he does not obey
    00:25:11.246                             : en:Leon and the hookers  gang up on Stu; Phone booth
    00:29:06.588                             : en:Stu tries to call for help; Phone booth
    00:32:06.787                             : en:The police come to arrest Stu; Phone booth and street
    00:39:35.336                             : en:Reporters arrive to cover the story; City streets and phone booth
    00:42:40.638                             : en:Kelly arrives and Stu tries to protect her; Phone booth and street
    00:49:48.233                             : en:Stu tells Kelly about the other woman in his life; Phone booth and street
    00:52:15.414                             : en:Capt. Ramey suspects Stu is being controlled; Street and phone booth
    00:54:19.563                             : en: Stu is the patsy for the Leon's death; Phone booth and street
    00:59:58.052                             : en:Stu bares his heart to Kelly and the public; Phone booth and street
    01:08:22.827                             : en:Stu takes a stand, ESU moves in on The Caller
    01:12:40.145                             : en:Epilogue; Ambulance and crime scene
    01:15:13.362                             : en:End Credits

  • Peso: 8.59 GiB

Sinopsis

En medio de la calle y a plena luz del día, un joven publicista de Nueva York se encuentra de repente atrapado en una cabina telefónica debido a las amenazas de un francotirador armado con un rifle: si cuelga el aparato, morirá.

Ficha técnica

Video trailer de la película

Enlaces de descarga

Rip de Bluray

Descargar Enlace Mortal (2002) [Open Matte] WEB-DL 1080p Latino




Aportes de DPeliculasHDmega la pass es:dpeliculashdmega.org Aportes de CinemaniaHD la pass es:cinemaniahdd.com
Guardado en : Drama , Suspense

Películas relacionadas

  • Tully (2018) 1080p Latino

    2018
    Tully (2018) 1080p Latino

    0.0 1 h 35 min 2018

    La historia de una mujer con tres hijos que, incapaz de lidiar con su bebé recién nacido, contrata...

    Director: Jason Reitman

    Género: Comedia

    Actores: Stormy Ent

  • Si solo pudiera imaginar (2018) Full 1080p Latino

    2018
    Si solo pudiera imaginar (2018) Full 1080p Latino

    5.0 1 h 50 min 2018

    La historia real de la aclamada canción "I Can Only Imagine", la canción cristiana contemporánea más...

    Director: Jon Erwin

    Género: Drama

    Actores: Trace Adkins

  • El Justiciero (2014) Full 1080p Latino

    2014
    El Justiciero (2014) Full 1080p Latino

    4.0 2 h 12 min 2014

    Robert McCall, un antiguo agente de la CIA que lleva ahora una vida tranquila, abandona su retiro para...

    Director: Deirdre Horgan

    Género: Acción

    Actores: Yan Dron

Comentarios 1
  • Kardia - 04 febrero, 2018

    Muchas gracias, como siempre, la mejor página, sin toneladas de publicidad y tan solo 3 clicks. Y lo mejor: GOOGLE DRIVE !! Felicitaciones al o a los administradores.