Enamorándome de mi ex (2009) Full 1080p Latino

439 vistas
1 estrella2 estrellas3 estrellas4 estrellas5 estrellas (1 votos, promedio: 1,00 de 5)
Cargando…

Información de Enamorándome de mi ex (2009) Full 1080p Latino

Datos de la película

  • Calidad: Full 1080p
  • Audio: Español Latino DTS 5.1 BLURAY - Ingles DTS 5.1 BLURAY
  • Subtitulos: Español Latino PGS - Ingles PGS
  • Resolución: 1920x1080p
  • Formato: MKV
  • Codec: H.264
  • Encoder: Dracarys
  • Mediainfo: Clic para Mostrar Datos Ver
  • Format                                   : Matroska
    Format version                           : Version 4 / Version 2
    File size                                : 9.75 GiB
    Duration                                 : 2 h 0 min
    Overall bit rate                         : 11.6 Mb/s
    Movie name                               : CinemaniaHDD.net
    Encoded date                             : UTC 2018-08-29 22:31:46 / UTC 2018-08-19T04:31:14Z
    Writing application                      : mkvmerge v15.0.0 ('Duel with the Devil') 64-bit
    Writing library                          : libebml v1.3.5 + libmatroska v1.4.5 / Lavf57.7.2

    Video
    ID                                       : 1
    Format                                   : AVC
    Format/Info                              : Advanced Video Codec
    Format profile                           : High@L4.1
    Format settings                          : CABAC / 4 Ref Frames
    Format settings, CABAC                   : Yes
    Format settings, RefFrames               : 4 frames
    Codec ID                                 : V_MPEG4/ISO/AVC
    Duration                                 : 2 h 0 min
    Bit rate                                 : 9 098 kb/s
    Width                                    : 1 920 pixels
    Height                                   : 1 080 pixels
    Display aspect ratio                     : 16:9
    Frame rate mode                          : Constant
    Frame rate                               : 23.976 (24000/1001) FPS
    Color space                              : YUV
    Chroma subsampling                       : 4:2:0
    Bit depth                                : 8 bits
    Scan type                                : Progressive
    Bits/(Pixel*Frame)                       : 0.183
    Stream size                              : 7.64 GiB (78%)
    Title                                    : Enamorándome de mi ex (2009)
    Writing library                          : x264 core 148 r2708 86b7198
    Encoding settings                        : cabac=1 / ref=4 / deblock=1:0:0 / analyse=0x3:0x133 / me=esa / subme=10 / psy=1 / psy_rd=1.00:0.00 / mixed_ref=1 / me_range=24 / chroma_me=1 / trellis=2 / 8x8dct=1 / cqm=0 / deadzone=21,11 / fast_pskip=1 / chroma_qp_offset=-2 / threads=34 / lookahead_threads=5 / sliced_threads=0 / nr=0 / decimate=1 / interlaced=0 / bluray_compat=0 / constrained_intra=0 / bframes=8 / b_pyramid=2 / b_adapt=2 / b_bias=0 / direct=3 / weightb=1 / open_gop=0 / weightp=2 / keyint=240 / keyint_min=24 / scenecut=40 / intra_refresh=0 / rc_lookahead=60 / rc=crf / mbtree=1 / crf=20.0 / qcomp=0.60 / qpmin=0 / qpmax=69 / qpstep=4 / vbv_maxrate=62500 / vbv_bufsize=78125 / crf_max=0.0 / nal_hrd=none / filler=0 / ip_ratio=1.40 / aq=1:1.00
    Language                                 : English
    Default                                  : Yes
    Forced                                   : No
    Color range                              : Limited
    Color primaries                          : BT.709
    Transfer characteristics                 : BT.709
    Matrix coefficients                      : BT.709
    Statistics Tags Issue                    : mkvmerge v15.0.0 ('Duel with the Devil') 64-bit 2018-08-29 22:31:46 / mkvmerge v15.0.0 ('Duel with the Devil') 64-bit 2018-08-29 22:31:46 / UTC 2018-08-19T04:31:14Z
    FromStats_BitRate                        : 9300449
    FromStats_Duration                       : 02:00:16.835000000
    FromStats_FrameCount                     : 173031
    FromStats_StreamSize                     : 8389976600

    Audio #1
    ID                                       : 2
    Format                                   : DTS
    Format/Info                              : Digital Theater Systems
    Mode                                     : 16
    Format settings, Endianness              : Big
    Codec ID                                 : A_DTS
    Duration                                 : 2 h 0 min
    Bit rate mode                            : Constant
    Bit rate                                 : 768 kb/s
    Channel(s)                               : 6 channels
    Channel positions                        : Front: L C R, Side: L R, LFE
    Sampling rate                            : 48.0 kHz
    Frame rate                               : 93.750 FPS (512 SPF)
    Bit depth                                : 24 bits
    Compression mode                         : Lossy
    Stream size                              : 661 MiB (7%)
    Language                                 : Spanish
    Default                                  : Yes
    Forced                                   : No
    Statistics Tags Issue                    : mkvmerge v15.0.0 ('Duel with the Devil') 64-bit 2018-08-29 22:31:46 / mkvmerge v15.0.0 ('Duel with the Devil') 64-bit 2018-08-29 22:31:46 / UTC 2018-08-19T04:31:14Z
    FromStats_BitRate                        : 768000
    FromStats_Duration                       : 02:00:16.832000000
    FromStats_FrameCount                     : 676578
    FromStats_StreamSize                     : 692815872

    Audio #2
    ID                                       : 3
    Format                                   : DTS
    Format/Info                              : Digital Theater Systems
    Mode                                     : 16
    Format settings, Endianness              : Big
    Codec ID                                 : A_DTS
    Duration                                 : 2 h 0 min
    Bit rate mode                            : Constant
    Bit rate                                 : 1 509 kb/s
    Channel(s)                               : 6 channels
    Channel positions                        : Front: L C R, Side: L R, LFE
    Sampling rate                            : 48.0 kHz
    Frame rate                               : 93.750 FPS (512 SPF)
    Bit depth                                : 24 bits
    Compression mode                         : Lossy
    Stream size                              : 1.27 GiB (13%)
    Language                                 : English
    Default                                  : No
    Forced                                   : No
    Statistics Tags Issue                    : mkvmerge v15.0.0 ('Duel with the Devil') 64-bit 2018-08-29 22:31:46 / mkvmerge v15.0.0 ('Duel with the Devil') 64-bit 2018-08-29 22:31:46 / UTC 2018-08-19T04:31:14Z
    FromStats_BitRate                        : 1509000
    FromStats_Duration                       : 02:00:16.832000000
    FromStats_FrameCount                     : 676578
    FromStats_StreamSize                     : 1361274936

    Text #1
    ID                                       : 4
    Format                                   : PGS
    Muxing mode                              : zlib
    Codec ID                                 : S_HDMV/PGS
    Codec ID/Info                            : Picture based subtitle format used on BDs/HD-DVDs
    Language                                 : English
    Default                                  : No
    Forced                                   : No
    Statistics Tags Issue                    : mkvmerge v15.0.0 ('Duel with the Devil') 64-bit 2018-08-29 22:31:46 / mkvmerge v15.0.0 ('Duel with the Devil') 64-bit 2018-08-29 22:31:46 / UTC 2018-08-19T04:31:14Z
    FromStats_BitRate                        : 50030
    FromStats_Duration                       : 01:54:38.121000000
    FromStats_FrameCount                     : 3757
    FromStats_StreamSize                     : 43014816

    Text #2
    ID                                       : 5
    Format                                   : PGS
    Muxing mode                              : zlib
    Codec ID                                 : S_HDMV/PGS
    Codec ID/Info                            : Picture based subtitle format used on BDs/HD-DVDs
    Language                                 : Spanish
    Default                                  : No
    Forced                                   : No
    Statistics Tags Issue                    : mkvmerge v15.0.0 ('Duel with the Devil') 64-bit 2018-08-29 22:31:46 / mkvmerge v15.0.0 ('Duel with the Devil') 64-bit 2018-08-29 22:31:46 / UTC 2018-08-19T04:31:14Z
    FromStats_BitRate                        : 41222
    FromStats_Duration                       : 01:53:04.694000000
    FromStats_FrameCount                     : 3179
    FromStats_StreamSize                     : 34960427

    Text #3
    ID                                       : 6
    Format                                   : PGS
    Muxing mode                              : zlib
    Codec ID                                 : S_HDMV/PGS
    Codec ID/Info                            : Picture based subtitle format used on BDs/HD-DVDs
    Title                                    : Forzados
    Language                                 : Spanish
    Default                                  : No
    Forced                                   : No
    Statistics Tags Issue                    : mkvmerge v15.0.0 ('Duel with the Devil') 64-bit 2018-08-29 22:31:46 / mkvmerge v15.0.0 ('Duel with the Devil') 64-bit 2018-08-29 22:31:46 / UTC 2018-08-19T04:31:14Z
    FromStats_BitRate                        : 9352
    FromStats_Duration                       : 00:00:39.123000000
    FromStats_FrameCount                     : 4
    FromStats_StreamSize                     : 45738

    Menu
    00:00:00.000                             : :Chapter 1
    00:07:40.961                             : :Chapter 2
    00:10:23.039                             : :Chapter 3
    00:15:33.307                             : :Chapter 4
    00:21:08.559                             : :Chapter 5
    00:27:37.364                             : :Chapter 6
    00:33:41.019                             : :Chapter 7
    00:40:43.483                             : :Chapter 8
    00:48:06.217                             : :Chapter 9
    00:54:39.651                             : :Chapter 10
    00:58:50.485                             : :Chapter 11
    01:09:31.417                             : :Chapter 12
    01:14:53.656                             : :Chapter 13
    01:18:59.401                             : :Chapter 14
    01:25:22.993                             : :Chapter 15
    01:30:34.304                             : :Chapter 16
    01:37:41.272                             : :Chapter 17
    01:43:35.668                             : :Chapter 18
    01:49:16.633                             : :Chapter 19
    01:54:44.503                             : :Chapter 20

  • Peso: 9.75 GiB

Sinopsis

Jane (Meryl Streep), madre de tres hijos ya adultos, es la propietaria de un restaurante-pastelería de Santa Barbara. A pesar de estar divorciada desde hace años, mantiene una amistosa relación con su ex-marido Jake (Alec Baldwin). Sin embargo, cuando tienen que viajar juntos para asistir a la graduación de su hijo, su relación se estropea. Al casarse Jake con una mujer más joven, Jane se convierte de pronto en “la otra”. Y de este embrollo no podrá librarse ni siquiera Adam (Steve Martin), un arquitecto contratado para renovar la cocina de Jane.

Ficha técnica

Video trailer de la película

Enlaces de descarga

Rip de Bluray

Descargar Enamorándome de mi ex (2009) Full 1080p Latino




Aportes de DPeliculasHDmega la pass es:dpeliculashdmega.org Aportes de CinemaniaHD la pass es:cinemaniahdd.com

Películas relacionadas

  • Mary Poppins (1964) Full 1080p Latino

    1964
    Mary Poppins (1964) Full 1080p Latino

    5.0 2h 19m 1964

    Reinado de Eduardo VII (1901-1910). Una familia inglesa formada por un padre banquero, una madre sufraguista...

    Director: Robert Stevenson

    Género: Comedia

    Actores: Reta Shaw

  • Siberia (2018) Full 1080p Subtitulado

    2018
    Siberia (2018) Full 1080p Subtitulado

    0.0 1h 44m 2018

    Cuando el socio ruso de un tratante de diamantes norteamericano (Keanu Reaves) desaparece, éste viaja...

    Director: Matthew Ross

    Género: Crimen

    Actores: Vladimir Shklyar

  • Los elegidos de la gloria (1983) Full 1080p Latino

    1983
    Los elegidos de la gloria (1983) Full 1080p Latino

    5.0 3 h 12 min 1983

    El libro de Tom Wolfe sobre la historia del programa espacial de los Estados Unidos, se lee como si fuera...

    Director: Philip Kaufman

    Género: Drama

    Actores: William Russ

Comentarios 0