El secreto de vivir (1936) Full 1080p Latino

628 vistas
1 estrella2 estrellas3 estrellas4 estrellas5 estrellas (1 votos, promedio: 1,00 de 5)
Cargando…

Información de El secreto de vivir (1936) Full 1080p Latino

Datos de la película

  • Calidad: Full 1080p
  • Audio: Se especifica abajo de la Sinopsis
  • Subtitulos: Español Latino PGS - Ingles PGS
  • Resolución: 1920x1080p
  • Formato: MKV
  • Codec: H.264
  • Encoder: Dracarys
  • Mediainfo: Clic para Mostrar Datos Ver
  • Format                                   : Matroska
    Format version                           : Version 4 / Version 2
    File size                                : 12.4 GiB
    Duration                                 : 1 h 55 min
    Overall bit rate                         : 15.3 Mb/s
    Movie name                               : CinemaniaHDD.net
    Encoded date                             : UTC 2018-06-12 21:58:21 / UTC 2018-05-28T08:51:50Z
    Writing application                      : mkvmerge v15.0.0 ('Duel with the Devil') 64-bit
    Writing library                          : libebml v1.3.5 + libmatroska v1.4.5 / Lavf57.7.2

    Video
    ID                                       : 1
    Format                                   : AVC
    Format/Info                              : Advanced Video Codec
    Format profile                           : High@L4.1
    Format settings                          : CABAC / 4 Ref Frames
    Format settings, CABAC                   : Yes
    Format settings, RefFrames               : 4 frames
    Codec ID                                 : V_MPEG4/ISO/AVC
    Duration                                 : 1 h 55 min
    Bit rate                                 : 14.0 Mb/s
    Width                                    : 1 920 pixels
    Height                                   : 1 080 pixels
    Display aspect ratio                     : 16:9
    Frame rate mode                          : Constant
    Frame rate                               : 23.976 (24000/1001) FPS
    Color space                              : YUV
    Chroma subsampling                       : 4:2:0
    Bit depth                                : 8 bits
    Scan type                                : Progressive
    Bits/(Pixel*Frame)                       : 0.282
    Stream size                              : 11.3 GiB (92%)
    Title                                    : El secreto de vivir (1936) Full 1080p Latino
    Writing library                          : x264 core 148 r2708 86b7198
    Encoding settings                        : cabac=1 / ref=4 / deblock=1:0:0 / analyse=0x3:0x133 / me=esa / subme=9 / psy=1 / psy_rd=1.00:0.00 / mixed_ref=1 / me_range=16 / chroma_me=1 / trellis=2 / 8x8dct=1 / cqm=0 / deadzone=21,11 / fast_pskip=1 / chroma_qp_offset=-2 / threads=34 / lookahead_threads=2 / sliced_threads=0 / nr=0 / decimate=1 / interlaced=0 / bluray_compat=0 / constrained_intra=0 / bframes=3 / b_pyramid=2 / b_adapt=2 / b_bias=0 / direct=3 / weightb=1 / open_gop=0 / weightp=2 / keyint=240 / keyint_min=24 / scenecut=40 / intra_refresh=0 / rc_lookahead=60 / rc=crf / mbtree=1 / crf=20.0 / qcomp=0.60 / qpmin=0 / qpmax=69 / qpstep=4 / vbv_maxrate=62500 / vbv_bufsize=78125 / crf_max=0.0 / nal_hrd=none / filler=0 / ip_ratio=1.40 / aq=1:1.00
    Language                                 : English
    Default                                  : Yes
    Forced                                   : No
    Color range                              : Limited
    Color primaries                          : BT.709
    Transfer characteristics                 : BT.709
    Matrix coefficients                      : BT.709
    Statistics Tags Issue                    : mkvmerge v15.0.0 ('Duel with the Devil') 64-bit 2018-06-12 21:58:21 / mkvmerge v15.0.0 ('Duel with the Devil') 64-bit 2018-06-12 21:58:21 / UTC 2018-05-28T08:51:50Z
    FromStats_BitRate                        : 14307407
    FromStats_Duration                       : 01:55:35.929000000
    FromStats_FrameCount                     : 166296
    FromStats_StreamSize                     : 12404395259

    Audio #1
    ID                                       : 2
    Format                                   : AC-3
    Format/Info                              : Audio Coding 3
    Format settings, Endianness              : Big
    Codec ID                                 : A_AC3
    Duration                                 : 1 h 55 min
    Bit rate mode                            : Constant
    Bit rate                                 : 192 kb/s
    Channel(s)                               : 2 channels
    Channel positions                        : Front: L R
    Sampling rate                            : 48.0 kHz
    Frame rate                               : 31.250 FPS (1536 SPF)
    Bit depth                                : 16 bits
    Compression mode                         : Lossy
    Delay relative to video                  : 15 ms
    Stream size                              : 159 MiB (1%)
    Language                                 : Spanish
    Service kind                             : Complete Main
    Default                                  : Yes
    Forced                                   : No
    Statistics Tags Issue                    : mkvmerge v15.0.0 ('Duel with the Devil') 64-bit 2018-06-12 21:58:21 / mkvmerge v15.0.0 ('Duel with the Devil') 64-bit 2018-06-12 21:58:21 / UTC 2018-05-28T08:51:50Z
    FromStats_BitRate                        : 192000
    FromStats_Duration                       : 01:55:35.936000000
    FromStats_FrameCount                     : 216748
    FromStats_StreamSize                     : 166462464

    Audio #2
    ID                                       : 3
    Format                                   : DTS
    Format/Info                              : Digital Theater Systems
    Mode                                     : 16
    Format settings, Endianness              : Big
    Codec ID                                 : A_DTS
    Duration                                 : 1 h 55 min
    Bit rate mode                            : Constant
    Bit rate                                 : 768 kb/s
    Channel(s)                               : 2 channels
    Channel positions                        : Front: L R
    Sampling rate                            : 48.0 kHz
    Frame rate                               : 93.750 FPS (512 SPF)
    Bit depth                                : 16 bits
    Compression mode                         : Lossy
    Stream size                              : 635 MiB (5%)
    Language                                 : English
    Default                                  : No
    Forced                                   : No
    Statistics Tags Issue                    : mkvmerge v15.0.0 ('Duel with the Devil') 64-bit 2018-06-12 21:58:21 / mkvmerge v15.0.0 ('Duel with the Devil') 64-bit 2018-06-12 21:58:21 / UTC 2018-05-28T08:51:50Z
    FromStats_BitRate                        : 767999
    FromStats_Duration                       : 01:55:35.926000000
    FromStats_FrameCount                     : 650243
    FromStats_StreamSize                     : 665848832

    Text #1
    ID                                       : 4
    Format                                   : PGS
    Muxing mode                              : zlib
    Codec ID                                 : S_HDMV/PGS
    Codec ID/Info                            : Picture based subtitle format used on BDs/HD-DVDs
    Language                                 : English
    Default                                  : No
    Forced                                   : No
    Statistics Tags Issue                    : mkvmerge v15.0.0 ('Duel with the Devil') 64-bit 2018-06-12 21:58:21 / mkvmerge v15.0.0 ('Duel with the Devil') 64-bit 2018-06-12 21:58:21 / UTC 2018-05-28T08:51:50Z
    FromStats_BitRate                        : 64429
    FromStats_Duration                       : 01:54:06.715000000
    FromStats_FrameCount                     : 4102
    FromStats_StreamSize                     : 55141123

    Text #2
    ID                                       : 5
    Format                                   : PGS
    Muxing mode                              : zlib
    Codec ID                                 : S_HDMV/PGS
    Codec ID/Info                            : Picture based subtitle format used on BDs/HD-DVDs
    Language                                 : Spanish
    Default                                  : No
    Forced                                   : No
    Statistics Tags Issue                    : mkvmerge v15.0.0 ('Duel with the Devil') 64-bit 2018-06-12 21:58:21 / mkvmerge v15.0.0 ('Duel with the Devil') 64-bit 2018-06-12 21:58:21 / UTC 2018-05-28T08:51:50Z
    FromStats_BitRate                        : 50509
    FromStats_Duration                       : 01:55:28.797000000
    FromStats_FrameCount                     : 3146
    FromStats_StreamSize                     : 43745842

    Menu
    00:00:00.000                             : :Chapter 1
    00:10:09.359                             : :Chapter 2
    00:12:37.465                             : :Chapter 3
    00:19:19.325                             : :Chapter 4
    00:26:38.764                             : :Chapter 5
    00:37:51.394                             : :Chapter 6
    00:44:10.565                             : :Chapter 7
    00:53:25.869                             : :Chapter 8
    00:58:47.274                             : :Chapter 9
    01:06:21.060                             : :Chapter 10
    01:11:47.553                             : :Chapter 11
    01:16:52.566                             : :Chapter 12
    01:23:09.109                             : :Chapter 13
    01:33:05.663                             : :Chapter 14
    01:40:29.440                             : :Chapter 15
    01:53:07.239                             : :Chapter 16

  • Peso: 12.4 GiB

Sinopsis

Un ingenuo joven de provincias (Gary Cooper) va a Nueva York para hacerse cargo de una herencia de veinte millones de dólares. Allí se enamora de una chica encantadora (Jean Arthur), sin saber que es la periodista que lo ridiculiza en sus artículos.

 

 

Latino AC3 2.0 Bluray  –  Ingles DTS 2.0 Bluray

Ficha técnica

Video trailer de la película

Enlaces de descarga

Rip de Bluray

Descargar El secreto de vivir (1936) Full 1080p Latino




Aportes de DPeliculasHDmega la pass es:dpeliculashdmega.org Aportes de CinemaniaHD la pass es:cinemaniahdd.com

Películas relacionadas

Comentarios 0