El rey león II el reino de Simba (1998) Full 1080p Latino

805 vistas
1 estrella2 estrellas3 estrellas4 estrellas5 estrellas (3 votos, promedio: 3,67 de 5)
Cargando…

Información de El rey león II el reino de Simba (1998) Full 1080p Latino

Datos de la película

  • Calidad: Full 1080p
  • Audio: Español Latino AC3 5.1 BLURAY - Ingles DTS 5.1 BLURAY
  • Subtitulos: Español Latino PGS - Ingles PGS
  • Resolución: 1920x1080p
  • Formato: MKV
  • Codec: H.264
  • Encoder: Dracarys
  • Mediainfo: Clic para Mostrar Datos Ver
  • Format                                   : Matroska
    Format version                           : Version 4 / Version 2
    File size                                : 3.31 GiB
    Duration                                 : 1 h 20 min
    Overall bit rate                         : 5 869 kb/s
    Movie name                               : CinemaniaHDD.com
    Encoded date                             : UTC 2018-05-17 06:18:52 / UTC 2018-05-17T04:42:58Z
    Writing application                      : mkvmerge v15.0.0 ('Duel with the Devil') 64-bit
    Writing library                          : libebml v1.3.5 + libmatroska v1.4.5 / Lavf57.7.2

    Video
    ID                                       : 1
    Format                                   : AVC
    Format/Info                              : Advanced Video Codec
    Format profile                           : High@L4.1
    Format settings                          : CABAC / 4 Ref Frames
    Format settings, CABAC                   : Yes
    Format settings, RefFrames               : 4 frames
    Codec ID                                 : V_MPEG4/ISO/AVC
    Duration                                 : 1 h 20 min
    Bit rate                                 : 3 603 kb/s
    Width                                    : 1 920 pixels
    Height                                   : 1 080 pixels
    Display aspect ratio                     : 16:9
    Frame rate mode                          : Constant
    Frame rate                               : 23.976 (24000/1001) FPS
    Color space                              : YUV
    Chroma subsampling                       : 4:2:0
    Bit depth                                : 8 bits
    Scan type                                : Progressive
    Bits/(Pixel*Frame)                       : 0.072
    Stream size                              : 2.03 GiB (61%)
    Title                                    : El rey león II el reino de Simba (1998) Full 1080p Latino
    Writing library                          : x264 core 148 r2708 86b7198
    Encoding settings                        : cabac=1 / ref=4 / deblock=1:0:0 / analyse=0x3:0x133 / me=esa / subme=9 / psy=1 / psy_rd=1.00:0.00 / mixed_ref=1 / me_range=16 / chroma_me=1 / trellis=2 / 8x8dct=1 / cqm=0 / deadzone=21,11 / fast_pskip=1 / chroma_qp_offset=-2 / threads=34 / lookahead_threads=2 / sliced_threads=0 / nr=0 / decimate=1 / interlaced=0 / bluray_compat=0 / constrained_intra=0 / bframes=3 / b_pyramid=2 / b_adapt=2 / b_bias=0 / direct=3 / weightb=1 / open_gop=0 / weightp=2 / keyint=240 / keyint_min=24 / scenecut=40 / intra_refresh=0 / rc_lookahead=60 / rc=crf / mbtree=1 / crf=20.0 / qcomp=0.60 / qpmin=0 / qpmax=69 / qpstep=4 / vbv_maxrate=62500 / vbv_bufsize=78125 / crf_max=0.0 / nal_hrd=none / filler=0 / ip_ratio=1.40 / aq=1:1.00
    Language                                 : English
    Default                                  : Yes
    Forced                                   : No
    Color range                              : Limited
    Color primaries                          : BT.709
    Transfer characteristics                 : BT.709
    Matrix coefficients                      : BT.709
    Statistics Tags Issue                    : mkvmerge v15.0.0 ('Duel with the Devil') 64-bit 2018-05-17 06:18:52 / mkvmerge v15.0.0 ('Duel with the Devil') 64-bit 2018-05-17 06:18:52 / UTC 2018-05-17T04:42:58Z
    FromStats_BitRate                        : 3702092
    FromStats_Duration                       : 01:20:49.845000000
    FromStats_FrameCount                     : 116280
    FromStats_StreamSize                     : 2244322018

    Audio #1
    ID                                       : 2
    Format                                   : AC-3
    Format/Info                              : Audio Coding 3
    Format settings, Endianness              : Big
    Codec ID                                 : A_AC3
    Duration                                 : 1 h 20 min
    Bit rate mode                            : Constant
    Bit rate                                 : 640 kb/s
    Channel(s)                               : 6 channels
    Channel positions                        : Front: L C R, Side: L R, LFE
    Sampling rate                            : 48.0 kHz
    Frame rate                               : 31.250 FPS (1536 SPF)
    Bit depth                                : 16 bits
    Compression mode                         : Lossy
    Stream size                              : 370 MiB (11%)
    Language                                 : Spanish
    Service kind                             : Complete Main
    Default                                  : Yes
    Forced                                   : No
    Statistics Tags Issue                    : mkvmerge v15.0.0 ('Duel with the Devil') 64-bit 2018-05-17 06:18:52 / mkvmerge v15.0.0 ('Duel with the Devil') 64-bit 2018-05-17 06:18:52 / UTC 2018-05-17T04:42:58Z
    FromStats_BitRate                        : 640000
    FromStats_Duration                       : 01:20:49.856000000
    FromStats_FrameCount                     : 151558
    FromStats_StreamSize                     : 387988480

    Audio #2
    ID                                       : 3
    Format                                   : DTS
    Format/Info                              : Digital Theater Systems
    Mode                                     : 16
    Format settings, Endianness              : Big
    Codec ID                                 : A_DTS
    Duration                                 : 1 h 20 min
    Bit rate mode                            : Constant
    Bit rate                                 : 1 509 kb/s
    Channel(s)                               : 6 channels
    Channel positions                        : Front: L C R, Side: L R, LFE
    Sampling rate                            : 48.0 kHz
    Frame rate                               : 93.750 FPS (512 SPF)
    Bit depth                                : 24 bits
    Compression mode                         : Lossy
    Stream size                              : 872 MiB (26%)
    Language                                 : English
    Default                                  : No
    Forced                                   : No
    Statistics Tags Issue                    : mkvmerge v15.0.0 ('Duel with the Devil') 64-bit 2018-05-17 06:18:52 / mkvmerge v15.0.0 ('Duel with the Devil') 64-bit 2018-05-17 06:18:52 / UTC 2018-05-17T04:42:58Z
    FromStats_BitRate                        : 1508999
    FromStats_Duration                       : 01:20:49.835000000
    FromStats_FrameCount                     : 454672
    FromStats_StreamSize                     : 914800064

    Text #1
    ID                                       : 4
    Format                                   : PGS
    Muxing mode                              : zlib
    Codec ID                                 : S_HDMV/PGS
    Codec ID/Info                            : Picture based subtitle format used on BDs/HD-DVDs
    Title                                    : Forzados
    Language                                 : Spanish
    Default                                  : Yes
    Forced                                   : Yes
    Statistics Tags Issue                    : mkvmerge v15.0.0 ('Duel with the Devil') 64-bit 2018-05-17 06:18:52 / mkvmerge v15.0.0 ('Duel with the Devil') 64-bit 2018-05-17 06:18:52 / UTC 2018-05-17T04:42:58Z
    FromStats_BitRate                        : 45
    FromStats_Duration                       : 01:11:57.564000000
    FromStats_FrameCount                     : 4
    FromStats_StreamSize                     : 24592

    Text #2
    ID                                       : 5
    Format                                   : PGS
    Muxing mode                              : zlib
    Codec ID                                 : S_HDMV/PGS
    Codec ID/Info                            : Picture based subtitle format used on BDs/HD-DVDs
    Language                                 : Spanish
    Default                                  : No
    Forced                                   : No
    Statistics Tags Issue                    : mkvmerge v15.0.0 ('Duel with the Devil') 64-bit 2018-05-17 06:18:52 / mkvmerge v15.0.0 ('Duel with the Devil') 64-bit 2018-05-17 06:18:52 / UTC 2018-05-17T04:42:58Z
    FromStats_BitRate                        : 26044
    FromStats_Duration                       : 01:14:57.493000000
    FromStats_FrameCount                     : 1404
    FromStats_StreamSize                     : 14641739

    Text #3
    ID                                       : 6
    Format                                   : PGS
    Muxing mode                              : zlib
    Codec ID                                 : S_HDMV/PGS
    Codec ID/Info                            : Picture based subtitle format used on BDs/HD-DVDs
    Language                                 : English
    Default                                  : No
    Forced                                   : No
    Statistics Tags Issue                    : mkvmerge v15.0.0 ('Duel with the Devil') 64-bit 2018-05-17 06:18:52 / mkvmerge v15.0.0 ('Duel with the Devil') 64-bit 2018-05-17 06:18:52 / UTC 2018-05-17T04:42:58Z
    FromStats_BitRate                        : 27455
    FromStats_Duration                       : 01:14:50.486000000
    FromStats_FrameCount                     : 1740
    FromStats_StreamSize                     : 15410856

    Menu
    00:00:00.000                             : :Chapter 1
    00:03:33.130                             : :Chapter 2
    00:05:39.005                             : :Chapter 3
    00:09:16.056                             : :Chapter 4
    00:14:21.069                             : :Chapter 5
    00:19:09.690                             : :Chapter 6
    00:21:48.182                             : :Chapter 7
    00:26:53.904                             : :Chapter 8
    00:31:02.944                             : :Chapter 9
    00:33:00.479                             : :Chapter 10
    00:39:56.269                             : :Chapter 11
    00:44:47.101                             : :Chapter 12
    00:45:40.446                             : :Chapter 13
    00:50:37.952                             : :Chapter 14
    00:56:15.831                             : :Chapter 15
    00:59:51.546                             : :Chapter 16
    01:01:24.389                             : :Chapter 17
    01:05:01.439                             : :Chapter 18
    01:12:54.120                             : :Chapter 19
    01:15:20.516                             : :Chapter 20

  • Peso: 3.31 GiB

Sinopsis

Kiara, la hija primogénita de Simba y heredera de los dominios del clan, va en busca de aventuras por el Serengeti. Escapando de sus cuidadores, Timón y Pumba, Kiara se adentra en las tierras oscuras, que se sitúan fuera de los límites establecidos para ella. Allí conoce a Kovu, un joven cachorro elegido para seguir las huellas de Scar. Alcanzar la paz entre los habitantes de las tierras oscuras y los del territorio de Simba depende de Kiara y Kovu. Pero… ¿llegará a encontrar el amor una manera de unir dos mundos tan diferentes?

Ficha técnica

Video trailer de la película

Enlaces de descarga

Rip de Bluray

Descargar El rey león II el reino de Simba (1998) Full 1080p Latino




Aportes de DPeliculasHDmega la pass es:dpeliculashdmega.org Aportes de CinemaniaHD la pass es:cinemaniahdd.com

Películas relacionadas

  • Lady Bird (2017) Full 1080p Latino

    2017
    Lady Bird (2017) Full 1080p Latino

    5.0 1h 34m 2017

    Sacramento, California, año 2002. Una joven llamada Christine McPherson (Saoirse Ronan), apodada como...

    Director: Jonas Spaccarotelli

    Género: Comedia

    Actores: Tracy Letts

  • Plan de escape (2013) Full 1080p Latino

    2013
    Plan de escape (2013) Full 1080p Latino

    3.0 1h 56m 2013

    El experto en seguridad Ray Breslin prueba sus teorías poco convencionales en diseño de prisiones elaborando...

    Director: Mikael Håfström

    Género: Acción

    Actores: Vinnie Jones

Comentarios 0