El alma de la fiesta (2018) 1080p Latino | CinemaniaHD - Descargar Peliculas 1080p Mega Google Drive

El alma de la fiesta (2018) 1080p Latino

1.086 vistas
1 estrella2 estrellas3 estrellas4 estrellas5 estrellas (Ninguna valoración todavía)
Cargando…

Información de El alma de la fiesta (2018) 1080p Latino

Datos de la película

  • Calidad: 1080p
  • Audio: Español Latino AC3 5.1 DVD - Ingles AC3 5.1 BLURAY
  • Subtitulos: Español Latino SRT
  • Resolución: 1920x800p
  • Formato: MKV
  • Codec: H.264
  • Encoder: Dracarys
  • Mediainfo: Clic para Mostrar Datos Ver
  • Format                                   : Matroska
    Format version                           : Version 4 / Version 2
    File size                                : 3.28 GiB
    Duration                                 : 1 h 44 min
    Overall bit rate                         : 4 478 kb/s
    Movie name                               : CinemaniaHDD.net
    Encoded date                             : UTC 2018-07-21 06:53:00 / UTC 2018-07-21T05:49:26Z
    Writing application                      : mkvmerge v15.0.0 ('Duel with the Devil') 64-bit
    Writing library                          : libebml v1.3.5 + libmatroska v1.4.5 / Lavf57.7.2

    Video
    ID                                       : 1
    Format                                   : AVC
    Format/Info                              : Advanced Video Codec
    Format profile                           : High@L4.1
    Format settings                          : CABAC / 5 Ref Frames
    Format settings, CABAC                   : Yes
    Format settings, RefFrames               : 5 frames
    Codec ID                                 : V_MPEG4/ISO/AVC
    Duration                                 : 1 h 44 min
    Bit rate                                 : 3 500 kb/s
    Width                                    : 1 920 pixels
    Height                                   : 800 pixels
    Display aspect ratio                     : 2.40:1
    Frame rate mode                          : Constant
    Frame rate                               : 23.976 (24000/1001) FPS
    Color space                              : YUV
    Chroma subsampling                       : 4:2:0
    Bit depth                                : 8 bits
    Scan type                                : Progressive
    Bits/(Pixel*Frame)                       : 0.095
    Stream size                              : 2.46 GiB (75%)
    Title                                    : El alma de la fiesta (2018) 1080p Latino
    Writing library                          : x264 core 148 r2708 86b7198
    Encoding settings                        : cabac=1 / ref=5 / deblock=1:0:0 / analyse=0x3:0x113 / me=umh / subme=8 / psy=1 / psy_rd=1.00:0.00 / mixed_ref=1 / me_range=16 / chroma_me=1 / trellis=1 / 8x8dct=1 / cqm=0 / deadzone=21,11 / fast_pskip=1 / chroma_qp_offset=-2 / threads=25 / lookahead_threads=4 / sliced_threads=0 / nr=0 / decimate=1 / interlaced=0 / bluray_compat=0 / constrained_intra=0 / bframes=3 / b_pyramid=2 / b_adapt=2 / b_bias=0 / direct=3 / weightb=1 / open_gop=0 / weightp=2 / keyint=240 / keyint_min=24 / scenecut=40 / intra_refresh=0 / rc_lookahead=50 / rc=abr / mbtree=1 / bitrate=3500 / ratetol=1.0 / qcomp=0.60 / qpmin=0 / qpmax=69 / qpstep=4 / vbv_maxrate=62500 / vbv_bufsize=78125 / nal_hrd=none / filler=0 / ip_ratio=1.40 / aq=1:1.00
    Language                                 : English
    Default                                  : Yes
    Forced                                   : No
    Color range                              : Limited
    Color primaries                          : BT.709
    Transfer characteristics                 : BT.709
    Matrix coefficients                      : BT.709
    Statistics Tags Issue                    : mkvmerge v15.0.0 ('Duel with the Devil') 64-bit 2018-07-21 06:53:00 / mkvmerge v15.0.0 ('Duel with the Devil') 64-bit 2018-07-21 06:53:00 / UTC 2018-07-21T05:49:26Z
    FromStats_BitRate                        : 3452121
    FromStats_Duration                       : 01:44:48.866000000
    FromStats_FrameCount                     : 150782
    FromStats_StreamSize                     : 2713740834

    Audio #1
    ID                                       : 2
    Format                                   : AC-3
    Format/Info                              : Audio Coding 3
    Format settings, Endianness              : Big
    Codec ID                                 : A_AC3
    Duration                                 : 1 h 44 min
    Bit rate mode                            : Constant
    Bit rate                                 : 384 kb/s
    Channel(s)                               : 6 channels
    Channel positions                        : Front: L C R, Side: L R, LFE
    Sampling rate                            : 48.0 kHz
    Frame rate                               : 31.250 FPS (1536 SPF)
    Bit depth                                : 16 bits
    Compression mode                         : Lossy
    Delay relative to video                  : -5 ms
    Stream size                              : 288 MiB (9%)
    Language                                 : Spanish
    Service kind                             : Complete Main
    Default                                  : Yes
    Forced                                   : No
    Statistics Tags Issue                    : mkvmerge v15.0.0 ('Duel with the Devil') 64-bit 2018-07-21 06:53:00 / mkvmerge v15.0.0 ('Duel with the Devil') 64-bit 2018-07-21 06:53:00 / UTC 2018-07-21T05:49:26Z
    FromStats_BitRate                        : 384000
    FromStats_Duration                       : 01:44:48.928000000
    FromStats_FrameCount                     : 196529
    FromStats_StreamSize                     : 301868544

    Audio #2
    ID                                       : 3
    Format                                   : AC-3
    Format/Info                              : Audio Coding 3
    Format settings, Endianness              : Big
    Codec ID                                 : A_AC3
    Duration                                 : 1 h 44 min
    Bit rate mode                            : Constant
    Bit rate                                 : 640 kb/s
    Channel(s)                               : 6 channels
    Channel positions                        : Front: L C R, Side: L R, LFE
    Sampling rate                            : 48.0 kHz
    Frame rate                               : 31.250 FPS (1536 SPF)
    Bit depth                                : 16 bits
    Compression mode                         : Lossy
    Delay relative to video                  : -5 ms
    Stream size                              : 480 MiB (14%)
    Language                                 : English
    Service kind                             : Complete Main
    Default                                  : No
    Forced                                   : No
    Statistics Tags Issue                    : mkvmerge v15.0.0 ('Duel with the Devil') 64-bit 2018-07-21 06:53:00 / mkvmerge v15.0.0 ('Duel with the Devil') 64-bit 2018-07-21 06:53:00 / UTC 2018-07-21T05:49:26Z
    FromStats_BitRate                        : 640000
    FromStats_Duration                       : 01:44:48.864000000
    FromStats_FrameCount                     : 196527
    FromStats_StreamSize                     : 503109120

    Text
    ID                                       : 4
    Format                                   : UTF-8
    Codec ID                                 : S_TEXT/UTF8
    Codec ID/Info                            : UTF-8 Plain Text
    Language                                 : Spanish
    Default                                  : No
    Forced                                   : No
    Statistics Tags Issue                    : mkvmerge v15.0.0 ('Duel with the Devil') 64-bit 2018-07-21 06:53:00 / mkvmerge v15.0.0 ('Duel with the Devil') 64-bit 2018-07-21 06:53:00 / UTC 2018-07-21T05:49:26Z
    FromStats_BitRate                        : 86
    FromStats_Duration                       : 01:38:37.781000000
    FromStats_FrameCount                     : 1895
    FromStats_StreamSize                     : 64074

  • Peso: 3.28 GiB

Sinopsis

Después de haber sido abandonada por su esposo, Deanna, ama de casa, decide darle un giro a su vida y se inscribe en la misma universidad en la que estudia su hija. Allí se convertirá en el alma de las fiestas.

Ficha técnica

  • Titulo original: Life of the Party
  • Fecha de lanzamiento: 11-05-2018 (United States of America)
  • Director: Ben Falcone
  • Género: Comedia
  • Puntuación: 0.0 0 votos
  • Duración:
    1 h 44 min

Video trailer de la película

Enlaces de descarga

Rip de Bluray

Descargar El alma de la fiesta (2018) 1080p Latino




Aportes de DPeliculasHDmega la pass es:dpeliculashdmega.org Aportes de CinemaniaHD la pass es:cinemaniahdd.com
Guardado en : Comedia

Películas relacionadas

  • The Hitman’s Bodyguard (2017) Full 1080p Latino

    2017
    The Hitman’s Bodyguard (2017) Full 1080p Latino

    4.3 1 h 58 min 2017

    El prestigioso guardaespaldas Michael Bryce recibe un nuevo cliente: un asesino a sueldo, Darius Kincaid,...

    Director: Stefania Velichkova

    Género: Acción

    Actores: Yuri Kolokolnikov

  • Show Dogs (2018) Full 1080p Latino

    2018
    Show Dogs (2018) Full 1080p Latino

    3.7 1 h 30 min 2018

    Un detective encuentra aventuras con su improbable compañero, un policía canino que tiene que esconderse...

    Director: Raja Gosnell

    Género: Comedia

    Actores: Will Arnett

Comentarios 0