Doce monos (1995) Full 1080p Latino

908 vistas
1 estrella2 estrellas3 estrellas4 estrellas5 estrellas (6 votos, promedio: 4,33 de 5)
Cargando…

Información de Doce monos (1995) Full 1080p Latino

Datos de la película

  • Calidad: Full 1080p
  • Audio: Español Latino DTS 5.1 BLURAY - Ingles DTS 5.1 BLURAY
  • Subtitulos: Español Latino PGS - Ingles PGS
  • Resolución: 1920x1080p
  • Formato: MKV
  • Codec: H.264
  • Encoder: Dracarys
  • Mediainfo: Clic para Mostrar Datos Ver
  • Format                                   : Matroska
    Format version                           : Version 4 / Version 2
    File size                                : 8.62 GiB
    Duration                                 : 2 h 9 min
    Overall bit rate                         : 9 519 kb/s
    Movie name                               : CinemaniaHDD.net
    Encoded date                             : UTC 2018-08-29 22:11:01 / UTC 2018-08-17T11:58:18Z
    Writing application                      : mkvmerge v15.0.0 ('Duel with the Devil') 64-bit
    Writing library                          : libebml v1.3.5 + libmatroska v1.4.5 / Lavf57.7.2

    Video
    ID                                       : 1
    Format                                   : AVC
    Format/Info                              : Advanced Video Codec
    Format profile                           : High@L4.1
    Format settings                          : CABAC / 4 Ref Frames
    Format settings, CABAC                   : Yes
    Format settings, RefFrames               : 4 frames
    Codec ID                                 : V_MPEG4/ISO/AVC
    Duration                                 : 2 h 9 min
    Bit rate                                 : 7 052 kb/s
    Width                                    : 1 920 pixels
    Height                                   : 1 080 pixels
    Display aspect ratio                     : 16:9
    Frame rate mode                          : Constant
    Frame rate                               : 23.976 (24000/1001) FPS
    Color space                              : YUV
    Chroma subsampling                       : 4:2:0
    Bit depth                                : 8 bits
    Scan type                                : Progressive
    Bits/(Pixel*Frame)                       : 0.142
    Stream size                              : 6.38 GiB (74%)
    Title                                    : Doce monos (1995) Full 1080p Latino
    Writing library                          : x264 core 148 r2708 86b7198
    Encoding settings                        : cabac=1 / ref=4 / deblock=1:0:0 / analyse=0x3:0x133 / me=esa / subme=10 / psy=1 / psy_rd=1.00:0.00 / mixed_ref=1 / me_range=24 / chroma_me=1 / trellis=2 / 8x8dct=1 / cqm=0 / deadzone=21,11 / fast_pskip=1 / chroma_qp_offset=-2 / threads=34 / lookahead_threads=5 / sliced_threads=0 / nr=0 / decimate=1 / interlaced=0 / bluray_compat=0 / constrained_intra=0 / bframes=8 / b_pyramid=2 / b_adapt=2 / b_bias=0 / direct=3 / weightb=1 / open_gop=0 / weightp=2 / keyint=240 / keyint_min=24 / scenecut=40 / intra_refresh=0 / rc_lookahead=60 / rc=crf / mbtree=1 / crf=20.0 / qcomp=0.60 / qpmin=0 / qpmax=69 / qpstep=4 / vbv_maxrate=62500 / vbv_bufsize=78125 / crf_max=0.0 / nal_hrd=none / filler=0 / ip_ratio=1.40 / aq=1:1.00
    Default                                  : Yes
    Forced                                   : No
    Color range                              : Limited
    Color primaries                          : BT.709
    Transfer characteristics                 : BT.709
    Matrix coefficients                      : BT.709
    Statistics Tags Issue                    : mkvmerge v15.0.0 ('Duel with the Devil') 64-bit 2018-08-29 22:11:01 / mkvmerge v15.0.0 ('Duel with the Devil') 64-bit 2018-08-29 22:11:01 / UTC 2018-08-17T11:58:18Z
    FromStats_BitRate                        : 7213093
    FromStats_Duration                       : 02:09:34.767000000
    FromStats_FrameCount                     : 186408
    FromStats_StreamSize                     : 7010015132

    Audio #1
    ID                                       : 2
    Format                                   : DTS
    Format/Info                              : Digital Theater Systems
    Mode                                     : 16
    Format settings, Endianness              : Big
    Codec ID                                 : A_DTS
    Duration                                 : 2 h 9 min
    Bit rate mode                            : Constant
    Bit rate                                 : 768 kb/s
    Channel(s)                               : 6 channels
    Channel positions                        : Front: L C R, Side: L R, LFE
    Sampling rate                            : 48.0 kHz
    Frame rate                               : 93.750 FPS (512 SPF)
    Bit depth                                : 24 bits
    Compression mode                         : Lossy
    Stream size                              : 712 MiB (8%)
    Language                                 : Spanish
    Default                                  : Yes
    Forced                                   : No
    Statistics Tags Issue                    : mkvmerge v15.0.0 ('Duel with the Devil') 64-bit 2018-08-29 22:11:01 / mkvmerge v15.0.0 ('Duel with the Devil') 64-bit 2018-08-29 22:11:01 / UTC 2018-08-17T11:58:18Z
    FromStats_BitRate                        : 767999
    FromStats_Duration                       : 02:09:34.763000000
    FromStats_FrameCount                     : 728884
    FromStats_StreamSize                     : 746377216

    Audio #2
    ID                                       : 3
    Format                                   : DTS
    Format/Info                              : Digital Theater Systems
    Mode                                     : 16
    Format settings, Endianness              : Big
    Codec ID                                 : A_DTS
    Duration                                 : 2 h 9 min
    Bit rate mode                            : Constant
    Bit rate                                 : 1 509 kb/s
    Channel(s)                               : 6 channels
    Channel positions                        : Front: L C R, Side: L R, LFE
    Sampling rate                            : 48.0 kHz
    Frame rate                               : 93.750 FPS (512 SPF)
    Bit depth                                : 24 bits
    Compression mode                         : Lossy
    Stream size                              : 1.37 GiB (16%)
    Language                                 : English
    Default                                  : No
    Forced                                   : No
    Statistics Tags Issue                    : mkvmerge v15.0.0 ('Duel with the Devil') 64-bit 2018-08-29 22:11:01 / mkvmerge v15.0.0 ('Duel with the Devil') 64-bit 2018-08-29 22:11:01 / UTC 2018-08-17T11:58:18Z
    FromStats_BitRate                        : 1508999
    FromStats_Duration                       : 02:09:34.763000000
    FromStats_FrameCount                     : 728884
    FromStats_StreamSize                     : 1466514608

    Text #1
    ID                                       : 4
    Format                                   : PGS
    Muxing mode                              : zlib
    Codec ID                                 : S_HDMV/PGS
    Codec ID/Info                            : Picture based subtitle format used on BDs/HD-DVDs
    Language                                 : English
    Default                                  : No
    Forced                                   : No
    Statistics Tags Issue                    : mkvmerge v15.0.0 ('Duel with the Devil') 64-bit 2018-08-29 22:11:01 / mkvmerge v15.0.0 ('Duel with the Devil') 64-bit 2018-08-29 22:11:01 / UTC 2018-08-17T11:58:18Z
    FromStats_BitRate                        : 50552
    FromStats_Duration                       : 02:06:25.244000000
    FromStats_FrameCount                     : 3925
    FromStats_StreamSize                     : 47931536

    Text #2
    ID                                       : 5
    Format                                   : PGS
    Muxing mode                              : zlib
    Codec ID                                 : S_HDMV/PGS
    Codec ID/Info                            : Picture based subtitle format used on BDs/HD-DVDs
    Language                                 : Spanish
    Default                                  : No
    Forced                                   : No
    Statistics Tags Issue                    : mkvmerge v15.0.0 ('Duel with the Devil') 64-bit 2018-08-29 22:11:01 / mkvmerge v15.0.0 ('Duel with the Devil') 64-bit 2018-08-29 22:11:01 / UTC 2018-08-17T11:58:18Z
    FromStats_BitRate                        : 37796
    FromStats_Duration                       : 02:04:17.241000000
    FromStats_FrameCount                     : 3534
    FromStats_StreamSize                     : 35231932

    Text #3
    ID                                       : 6
    Format                                   : PGS
    Muxing mode                              : zlib
    Codec ID                                 : S_HDMV/PGS
    Codec ID/Info                            : Picture based subtitle format used on BDs/HD-DVDs
    Title                                    : Forzados
    Language                                 : Spanish
    Default                                  : Yes
    Forced                                   : Yes
    Statistics Tags Issue                    : mkvmerge v15.0.0 ('Duel with the Devil') 64-bit 2018-08-29 22:11:01 / mkvmerge v15.0.0 ('Duel with the Devil') 64-bit 2018-08-29 22:11:01 / UTC 2018-08-17T11:58:18Z
    FromStats_BitRate                        : 480
    FromStats_Duration                       : 01:48:48.022000000
    FromStats_FrameCount                     : 32
    FromStats_StreamSize                     : 392450

    Menu
    00:00:00.000                             : :Chapter 1
    00:08:34.889                             : :Chapter 2
    00:10:58.366                             : :Chapter 3
    00:16:39.332                             : :Chapter 4
    00:21:29.872                             : :Chapter 5
    00:25:23.897                             : :Chapter 6
    00:29:27.266                             : :Chapter 7
    00:32:46.089                             : :Chapter 8
    00:36:30.271                             : :Chapter 9
    00:37:55.774                             : :Chapter 10
    00:40:00.607                             : :Chapter 11
    00:42:06.232                             : :Chapter 12
    00:44:45.141                             : :Chapter 13
    00:47:46.405                             : :Chapter 14
    00:53:47.850                             : :Chapter 15
    00:57:13.472                             : :Chapter 16
    00:58:50.152                             : :Chapter 17
    01:01:20.677                             : :Chapter 18
    01:03:24.467                             : :Chapter 19
    01:06:33.031                             : :Chapter 20
    01:10:06.744                             : :Chapter 21
    01:15:50.796                             : :Chapter 22
    01:18:27.995                             : :Chapter 23
    01:21:05.235                             : :Chapter 24
    01:23:42.976                             : :Chapter 25
    01:25:14.276                             : :Chapter 26
    01:26:37.359                             : :Chapter 27
    01:29:04.548                             : :Chapter 28
    01:31:32.737                             : :Chapter 29
    01:32:39.262                             : :Chapter 30
    01:35:04.574                             : :Chapter 31
    01:39:24.792                             : :Chapter 32
    01:41:40.511                             : :Chapter 33
    01:44:33.392                             : :Chapter 34
    01:46:33.679                             : :Chapter 35
    01:49:20.429                             : :Chapter 36
    01:50:58.068                             : :Chapter 37
    01:52:48.887                             : :Chapter 38
    01:54:31.365                             : :Chapter 39
    01:56:33.361                             : :Chapter 40
    01:59:07.015                             : :Chapter 41
    02:01:21.566                             : :Chapter 42
    02:04:13.237                             : :Chapter 43
    02:05:32.608                             : :Chapter 44

  • Peso: 8.62 GiB

Sinopsis

Año 2035. Tras el azote de un virus que asola la Tierra matando a millones de personas, los supervivientes se refugian en comunidades subterráneas, húmedas y frías. El prisionero James Cole se ofrece “voluntario” para viajar al pasado y conseguir una muestra del virus, gracias a la cual los científicos podrán elaborar un remedio. Durante el viaje conoce a una bella psiquiatra y un excepcional enfermo mental. Cole tratará de encontrar al “Ejército de los 12 Monos”, un grupo radical vinculado a la enfermedad.

Ficha técnica

Video trailer de la película

Enlaces de descarga

Rip de Bluray

Descargar Doce monos (1995) Full 1080p Latino




Aportes de DPeliculasHDmega la pass es:dpeliculashdmega.org Aportes de CinemaniaHD la pass es:cinemaniahdd.com

Películas relacionadas

  • Fahrenheit 451 (2018) 1080p Latino

    2018
    Fahrenheit 451 (2018) 1080p Latino

    0.0 1h 36m 2018

    Michael B. Jordan y Michael Shannon protagonizan esta adaptación de HBO de la clásica novela distópica...

    Director: Ramin Bahrani

    Género: 1080p Portada Negra

    Actores: Tim Post

  • Mary Poppins (1964) Full 1080p Latino

    1964
    Mary Poppins (1964) Full 1080p Latino

    5.0 2h 19m 1964

    Reinado de Eduardo VII (1901-1910). Una familia inglesa formada por un padre banquero, una madre sufraguista...

    Director: Robert Stevenson

    Género: Comedia

    Actores: Reta Shaw

  • Siberia (2018) Full 1080p Subtitulado

    2018
    Siberia (2018) Full 1080p Subtitulado

    0.0 1h 44m 2018

    Cuando el socio ruso de un tratante de diamantes norteamericano (Keanu Reaves) desaparece, éste viaja...

    Director: Matthew Ross

    Género: Crimen

    Actores: Vladimir Shklyar

  • Man on a Ledge (2012) Full 1080p Latino

    2012
    Man on a Ledge (2012) Full 1080p Latino

    5.0 1 h 42 min 2012

    Nick Cassidy (Sam Worthington), un antiguo agente de policía, se escapa de la cárcel y se dirige al...

    Director: Melissa Kalbfus

    Género: Acción

    Actores: William Sadler

Comentarios 1
  • The Principal - 01 septiembre, 2018

    Hola amigo….sabes q ustedes son los mejor en postear enlaces y descarga..los felicito…Tremenda Pagina…sigan asi Gracias por compartir asi siempre!!! LARGA VIDA!!!!!